2 сезон

iTunes

1 сезон

1

iTunes

iTunes

iTunes

1 сезон

RePack

30

ИГРА 18+

pack

ВАЖНО

!!Акция!!

Alien_RageХит недели

RePack

MK11
pack

Забери бонус

RePack

jed

!!Акция!!

Alien_Rage

RePack

fifa19

RePack

Assassins Creed: Odyssey

RePack

NEED FOR SPEED™ PAYBACK

4 сезон

9 сезон

Бесстыжие 9 сезон

Все сериалы

все сериалы на PB.wtf

RePack

FAR CRY 5
  

Синий бархат / Blue Velvet (Дэвид Линч) [1986, триллер, драма, детектив, BDRip 720p by msltel] DVO, 2 x AVO pb.wtf

Синий бархат через торрент pb.wtf

Размер: 4.77 GB | Добавлен: 3 года 6 мес. назад | Торрент скачан:43 раза
Скачать  

20-04-2017 05:08 Синий бархат Скачать торрент  

Название: Синий бархат
Оригинальное название: Blue Velvet
Год выпуска: 1986
Страна: США
Жанр: триллер, драма, детектив
Продолжительность: 02:00:32
Перевод: профессиональный двухголосый, авторский

Режиссёр: Дэвид Линч

В ролях: Кайл МакЛахлан, Изабелла Росселлини, Дэннис Хоппер, Лора Дерн, Хоуп Лэнг, Дин Стокуэлл, Брэд Дуриф, Кен Стовиц, Фрэнсис Бэй, Присцилла Пойнтер, Джордж Дикерсон, Джек Нэнс

Описание: В связи с болезнью отца Джеффри Бомон был вынужден на время оставить столичный колледж и вернуться в родной городок. Вскоре он находит неподалёку от дома отрезанное человеческое ухо. Неудовлетворённый одним лишь энтузиазмом полиции, он начинает собственное расследование, в котором ему помогает дочь полицейского детектива. Они с удивлением обнаруживают, что в их тихом безмятежном городке существует преступное подполье. Следы ведут к прекрасной и загадочной женщине и к её жестокому партнёру-наркоторговцу. Между юношей и женщиной завязывается странная нездоровая любовь, при том что он неравнодушен также и к дочери детектива...



Качество: BDRip 720p
Формат: MKV
Видео: MPEG-4 AVC, 4195 Кбит/с, 1280x544, 23,976 кадра/с
Аудио 1: русский, AC3, 384 kbps, 6 ch, 48 kHz [профессиональный двухголосый, HTB+]
Аудио 2: русский, AC3, 448 kbps, 6 ch, 48 kHz [авторский, Сергей Визгунов]
Аудио 3: русский, AC3, 192 kbps, 2 ch, 48 kHz [авторский, Алексей Михалёв]
Аудио 4: английский, AC3, 448 kbps, 6 ch, 48 kHz [оригинал]
Субтитры 1: русские
Субтитры 2: английские (для слабослышащих)
Имеются неименованные главы/чаптеры.
Общее
Уникальный идентификатор : 221429633624204531740766893325406636939 (0xA695CBD393A5FF7D89FA28C3406B0B8B)
Полное имя : D:\Video\Синий бархат.1986.BDRip.720p by msltel.mkv
Формат : Matroska
Версия формата : Version 4 / Version 2
Размер файла : 4,77 Гбайт
Продолжительность : 2 ч. 0 м.
Общий поток : 5670 Кбит/сек
Название фильма : Rip by msltel
Дата кодирования : UTC 2017-04-19 08:17:01
Программа кодирования : mkvmerge v8.2.0 ('World of Adventure') 64bit
Библиотека кодирования : libebml v1.3.1 + libmatroska v1.4.2

Видео
Идентификатор : 1
Формат : AVC
Формат/Информация : Advanced Video Codec
Профиль формата : High@L4.1
Параметр CABAC формата : Да
Параметр ReFrames формата : 9 кадров
Идентификатор кодека : V_MPEG4/ISO/AVC
Продолжительность : 2 ч. 0 м.
Битрейт : 4195 Кбит/сек
Ширина : 1280 пикселей
Высота : 544 пикселя
Соотношение сторон : 2,35:1
Режим частоты кадров : Постоянный
Частота кадров : 23,976 (24000/1001) кадра/сек
Цветовое пространство : YUV
Субдискретизация насыщенности : 4:2:0
Битовая глубина : 8 бит
Тип развёртки : Прогрессивная
Бит/(Пиксели*Кадры) : 0.251
Размер потока : 3,53 Гбайт (74%)
Библиотека кодирования : x264 core 146 r2538 121396c
Настройки программы : cabac=1 / ref=9 / deblock=1:-3:-2 / analyse=0x3:0x113 / me=umh / subme=11 / psy=1 / psy_rd=1.00:0.15 / mixed_ref=1 / me_range=32 / chroma_me=1 / trellis=2 / 8x8dct=1 / cqm=0 / deadzone=21,11 / fast_pskip=0 / chroma_qp_offset=-3 / threads=6 / lookahead_threads=1 / sliced_threads=0 / nr=0 / decimate=1 / interlaced=0 / bluray_compat=0 / constrained_intra=0 / bframes=12 / b_pyramid=2 / b_adapt=2 / b_bias=0 / direct=1 / weightb=1 / open_gop=0 / weightp=2 / keyint=240 / keyint_min=23 / scenecut=40 / intra_refresh=0 / rc_lookahead=40 / rc=crf / mbtree=0 / crf=19.1 / qcomp=0.60 / qpmin=0 / qpmax=69 / qpstep=4 / vbv_maxrate=62500 / vbv_bufsize=78125 / crf_max=0.0 / nal_hrd=none / filler=0 / ip_ratio=1.40 / pb_ratio=1.30 / aq=1:1.00
Язык : English
Default : Да
Forced : Нет

Аудио #1
Идентификатор : 2
Формат : AC-3
Формат/Информация : Audio Coding 3
Параметр Endianness формата : Big
Идентификатор кодека : A_AC3
Продолжительность : 2 ч. 0 м.
Вид битрейта : Постоянный
Битрейт : 384 Кбит/сек
Каналы : 6 каналов
Расположение каналов : Front: L C R, Side: L R, LFE
Частота : 48,0 КГц
Частота кадров : 31,250 кадров/сек (1536 spf)
Битовая глубина : 16 бит
Метод сжатия : С потерями
Размер потока : 331 Мбайт (7%)
Заголовок : DVO (HTB+)
Язык : Russian
ServiceKind/String : Complete Main
Default : Да
Forced : Нет

Аудио #2
Идентификатор : 3
Формат : AC-3
Формат/Информация : Audio Coding 3
Параметр Endianness формата : Big
Идентификатор кодека : A_AC3
Продолжительность : 2 ч. 0 м.
Вид битрейта : Постоянный
Битрейт : 448 Кбит/сек
Каналы : 6 каналов
Расположение каналов : Front: L C R, Side: L R, LFE
Частота : 48,0 КГц
Частота кадров : 31,250 кадров/сек (1536 spf)
Битовая глубина : 16 бит
Метод сжатия : С потерями
Размер потока : 386 Мбайт (8%)
Заголовок : AVO (Сергей Визгунов)
Язык : Russian
ServiceKind/String : Complete Main
Default : Нет
Forced : Нет

Аудио #3
Идентификатор : 4
Формат : AC-3
Формат/Информация : Audio Coding 3
Параметр Endianness формата : Big
Идентификатор кодека : A_AC3
Продолжительность : 2 ч. 0 м.
Вид битрейта : Постоянный
Битрейт : 192 Кбит/сек
Каналы : 2 канала
Расположение каналов : Front: L R
Частота : 48,0 КГц
Частота кадров : 31,250 кадров/сек (1536 spf)
Битовая глубина : 16 бит
Метод сжатия : С потерями
Размер потока : 166 Мбайт (3%)
Заголовок : AVO (Алексей Михалёв)
Язык : Russian
ServiceKind/String : Complete Main
Default : Нет
Forced : Нет

Аудио #4
Идентификатор : 5
Формат : AC-3
Формат/Информация : Audio Coding 3
Параметр Endianness формата : Big
Идентификатор кодека : A_AC3
Продолжительность : 2 ч. 0 м.
Вид битрейта : Постоянный
Битрейт : 448 Кбит/сек
Каналы : 6 каналов
Расположение каналов : Front: L C R, Side: L R, LFE
Частота : 48,0 КГц
Частота кадров : 31,250 кадров/сек (1536 spf)
Битовая глубина : 16 бит
Метод сжатия : С потерями
Размер потока : 386 Мбайт (8%)
Заголовок : original
Язык : English
ServiceKind/String : Complete Main
Default : Нет
Forced : Нет

Текст #1
Идентификатор : 6
Формат : UTF-8
Идентификатор кодека : S_TEXT/UTF8
Идентификатор кодека/Информация : UTF-8 Plain Text
Продолжительность : 1 ч. 57 м.
Битрейт : 59 бит/сек
ElementCount : 1058
Размер потока : 51,4 Кбайт (0%)
Заголовок : русские
Язык : Russian
Default : Нет
Forced : Нет

Текст #2
Идентификатор : 7
Формат : UTF-8
Идентификатор кодека : S_TEXT/UTF8
Идентификатор кодека/Информация : UTF-8 Plain Text
Продолжительность : 1 ч. 57 м.
Битрейт : 37 бит/сек
ElementCount : 1133
Размер потока : 32,5 Кбайт (0%)
Заголовок : английские (для слабослышащих)
Язык : English
Default : Нет
Forced : Нет

Меню
00:00:00.000 : :Chapter 01
00:01:48.607 : :Chapter 02
00:04:53.333 : :Chapter 03
00:09:10.006 : :Chapter 04
00:15:55.329 : :Chapter 05
00:19:52.065 : :Chapter 06
00:24:36.349 : :Chapter 07
00:27:31.107 : :Chapter 08
00:29:59.130 : :Chapter 09
00:34:39.952 : :Chapter 10
00:41:39.246 : :Chapter 11
00:47:41.775 : :Chapter 12
00:53:06.433 : :Chapter 13
00:57:59.017 : :Chapter 14
01:02:29.996 : :Chapter 15
01:06:37.535 : :Chapter 16
01:10:51.162 : :Chapter 17
01:13:15.682 : :Chapter 18
01:21:16.705 : :Chapter 19
01:27:07.722 : :Chapter 20
01:34:12.354 : :Chapter 21
01:36:44.173 : :Chapter 22
01:39:42.851 : :Chapter 23
01:42:29.434 : :Chapter 24
01:46:28.756 : :Chapter 25
01:50:21.031 : :Chapter 26
01:55:28.171 : :Chapter 27
01:59:14.438 : :Chapter 28
02:00:32.433 : :Chapter 29
pb.wtf



Скачать Синий бархат через торрент http://hostpic.gq/img/2017-04/20/1rkc26c0p7v0p5sd3xen486gr.jpg Скачать фильм Синий бархат через торрент бесплантно в хорошем качестве Описание: В связи с болезнью отца Джеффри Бомон был вынужден на время оставить столичный колледж и вернуться в родной городок. Вскоре он ... 8 10 2
Info! Золотая раздача, скачанное не засчитывается.
Торрент: Зарегистрирован [2017-04-20 05:08] · скачан: 43 раз
Статус: √ проверено
Размер: 4.77 GB
Как cкачать? Как скачать Синий бархат через торрент | qTorrent

% Раздел Тема Автор DL S | L
Фильмы [HD 720p, 1080p] (Хороший звук DUB, MVO) [ 12.36 GB ] Синий бархат / Blue Velvet [1986 BDRip 1080p by msltel] DVO 2 x AVO msltel Скачать
1 | 0

28-11-2019 20:33  

Отключить всю рекламу на сайте

    Дорогой пользователь! Огромная просьба, поблагодарите релизера, оцените раздачу и оставьте свои комментарий, если Вы скачали Синий бархат через торрент бесплатно! Внесите свою лепту в развитие PiratBit!
    Комментировать посты могут только пользователи прошедшие не сложную регистрацию
    Показать сообщения:    

    Синий бархат через торрент
    Скачать бесплатно Синий бархат
    Синий бархат скачать торрент
    Синий бархат смотреть онлайн
    Cкачать фильм Синий бархат бесплатно
    Синий бархат скачать торрент в хорошем качестве
    Синий бархат смотреть онлайн бесплатно в хорошем качестве


    Вы не можете начинать темы
    Вы не можете отвечать на сообщения
    Вы не можете редактировать свои сообщения
    Вы не можете удалять свои сообщения
    Вы не можете голосовать в опросах
    Вы не можете прикреплять файлы к сообщениям
    Вы можете скачивать файлы