Ссылка на приватное зеркало нашего сайта всего за 1$. Внимание количество ограничено!!!

2 сезон

iTunes

1 сезон

1

2 сезон

2 сезон

iTunes

1 сезон

RePack

30

Ultimate

ВАЖНО

ИГРА 18+

pack

RePack

MK11
pack

Забери бонус

RePack

jed

!!Акция!!

Alien_Rage

RePack

fifa19

RePack

Assassins Creed: Odyssey

RePack

NEED FOR SPEED™ PAYBACK

4 сезон

9 сезон

Бесстыжие 9 сезон

Все сериалы

все сериалы на PB.wtf

RePack

FAR CRY 5
  

Герилья / Guerrilla / Сезон: 1 / Серии: 1-6 из 6 (Сэм Миллер, Джон Ридли) [2017, драма, WEBRip] [MVO] (Jaskier) pb.wtf

Герилья через торрент pb.wtf

Размер: 3.96 GB | Добавлен: 3 года 6 мес. назад | Торрент скачан:5 раз
Скачать  

20-04-2017 11:54 Герилья Скачать торрент  


Герилья | Guerrilla

Год выпуска: 2017
Страна: США
Жанр: Драма
Продолжительность: ~ 00:55:00
Перевод: Профессиональный (многоголосый закадровый) | Jaskier

Режиссёр: Сэм Миллер, Джон Ридли

В ролях: Идрис Эльба, Вунми Моссаку, Патрик Гибсон, Сита Индрани, Фрида Пинто, Софиа Браун, Белла Дэйн, Зэйв Эштон и др.

Описание: Это история любви политических активистов 70-х годов Джас и Маркуса в период одного из тяжелейших периодов в истории Великобритании. Главные герои создают подпольную ячейку для борьбы с секретным правительственным отделом контрразведки Black Power Desk, который занимается подавлением общественно-политической деятельности темнокожих.



Качество: WEBRip
Формат: AVI
Видео: XviD, ~ 1400 kbps, 704x352 (2,000), 23,976 fps
Аудио 1: MP3, 48,0 КГц, 2 ch, 128 kbps - Rus
Аудио 2: MP3, 48,0 КГц, 2 ch, 128 kbps - Eng
Субтитры: отсутствуют
Перевод и озвучивание Студия Jaskier
Общее
Полное имя                               : D:\загрузки\Guerrilla. Season 1 (WEBRip l 400p l Jaskier)\Guerrilla.S01E01.WEBRip.Rus.Eng.Jaskier.avi
Формат                                   : AVI
Формат/Информация                        : Audio Video Interleave
Размер файла                             : 655 Мбайт
Продолжительность                        : 54 м. 20 с.
Общий поток                              : 1685 Кбит/сек
Программа кодирования                    : VirtualDubMod 1.5.10.3 | www.virtualdub-fr.org || (build 2550/release)
Библиотека кодирования                   : VirtualDubMod build 2550/release
Видео
Идентификатор                            : 0
Формат                                   : MPEG-4 Visual
Профиль формата                          : Advanced Simple@L5
Параметр BVOP формата                    : 1
Параметр QPel формата                    : Нет
Параметр GMC формата                     : Без точки перехода
Параметр матрицы формата                 : Default (MPEG)
Идентификатор кодека                     : XVID
Идентификатор кодека/Подсказка           : XviD
Продолжительность                        : 54 м. 20 с.
Битрейт                                  : 1415 Кбит/сек
Ширина                                   : 704 пикселя
Высота                                   : 352 пикселя
Соотношение сторон                       : 2,000
Частота кадров                           : 23,976 (24000/1001) кадра/сек
Цветовое пространство                    : YUV
Субдискретизация насыщенности            : 4:2:0
Битовая глубина                          : 8 бит
Тип развёртки                            : Прогрессивная
Метод сжатия                             : С потерями
Бит/(Пиксели*Кадры)                      : 0.238
Размер потока                            : 550 Мбайт (84%)
Библиотека кодирования                   : XviD 73
Аудио #1
Идентификатор                            : 1
Формат                                   : MPEG Audio
Версия формата                           : Version 1
Профиль формата                          : Layer 3
Режим                                    : Joint stereo
Расширение режима                        : MS Stereo
Идентификатор кодека                     : 55
Идентификатор кодека/Подсказка           : MP3
Продолжительность                        : 54 м. 20 с.
Вид битрейта                             : Постоянный
Битрейт                                  : 128 Кбит/сек
Каналы                                   : 2 канала
Частота                                  : 48,0 КГц
Метод сжатия                             : С потерями
Размер потока                            : 49,7 Мбайт (8%)
Выравнивание                             : Соединение по промежуткам
Продолжительность промежутка             : 42  мс. (1,00 видеокадр)
Время предзагрузки промежутка            : 504  мс.
Аудио #2
Идентификатор                            : 2
Формат                                   : MPEG Audio
Версия формата                           : Version 1
Профиль формата                          : Layer 3
Режим                                    : Joint stereo
Расширение режима                        : MS Stereo
Идентификатор кодека                     : 55
Идентификатор кодека/Подсказка           : MP3
Продолжительность                        : 54 м. 20 с.
Вид битрейта                             : Постоянный
Битрейт                                  : 128 Кбит/сек
Каналы                                   : 2 канала
Частота                                  : 48,0 КГц
Метод сжатия                             : С потерями
Размер потока                            : 49,7 Мбайт (8%)
Выравнивание                             : Соединение по промежуткам
Продолжительность промежутка             : 42  мс. (1,00 видеокадр)
Время предзагрузки промежутка            : 504  мс.
Когда раздача ведётся путём добавления новых серий, при каждом добавлении создётся новый торрент. Чтобы начать докачку новой серии, пользователям необходимо сделать следующее:
(1) остановить скачивание,
(2) удалить старый торрент у себя из клиента (старые серии удалять не надо),
(3) скачать новый торрент и запустить его у себя в клиенте вместо старого, при этом указать клиенту путь в старую папку, куда и должно происходить скачивание новых серий.
Ваш клиент при этом должен произвести хеширование (проверку) старой папки (если не производит сам - помогите ему сделать это), и будет докачивать только те серии, которых у вас ещё нет. Старые серии при этом не удаляются, а продолжают раздаваться!
Eсли вы уже удалили старые серии, то предотвратить повторную закачку старых серий можно, отжав галочку в соответсвующих местах при запуске нового торрента. По возможности, желательно не удалять старые серии как можно дольше, чтобы релизёр не столько продолжал раздавать старые серии, а смог сконцентрироваться на новых.
pb.wtf



Скачать Герилья через торрент http://i91.fastpic.ru/big/2017/0419/09/3b49d3c396aa5a978985d05e67731c09.png Скачать фильм Герилья через торрент бесплантно в хорошем качестве Описание: Это история любви политических активистов 70-х годов Джас и Маркуса в период одного из тяжелейших периодов в истории ... 5.5 10 2
Торрент: Зарегистрирован [2017-05-25 19:27] · скачан: 5 раз
Статус: √ проверено
Размер: 3.96 GB
Как cкачать? Как скачать Герилья через торрент | qTorrent



Последний раз редактировалось: killermax2013 (2017-05-25 19:27), всего редактировалось 1 раз

28-11-2019 20:33  

Отключить всю рекламу на сайте

05-05-2017 10:02 Герилья Скачать торрент  

+2-3pb.wtf



25-05-2017 19:28 Герилья Скачать торрент  

+4-6pb.wtf



    Дорогой пользователь! Огромная просьба, поблагодарите релизера, оцените раздачу и оставьте свои комментарий, если Вы скачали Герилья через торрент бесплатно! Внесите свою лепту в развитие PiratBit!
    Комментировать посты могут только пользователи прошедшие не сложную регистрацию
    Показать сообщения:    

    Герилья через торрент
    Скачать бесплатно Герилья
    Герилья скачать торрент
    Герилья смотреть онлайн
    Cкачать фильм Герилья бесплатно
    Герилья скачать торрент в хорошем качестве
    Герилья смотреть онлайн бесплатно в хорошем качестве


    Вы не можете начинать темы
    Вы не можете отвечать на сообщения
    Вы не можете редактировать свои сообщения
    Вы не можете удалять свои сообщения
    Вы не можете голосовать в опросах
    Вы не можете прикреплять файлы к сообщениям
    Вы можете скачивать файлы