Ссылка на приватное зеркало нашего сайта всего за 1$. Внимание количество ограничено!!!

2 сезон

iTunes

1 сезон

1

iTunes

iTunes

iTunes

1 сезон

RePack

30

ИГРА 18+

pack

ВАЖНО

!!Акция!!

Alien_RageХит недели

RePack

MK11
pack

Забери бонус

RePack

jed

!!Акция!!

Alien_Rage

RePack

fifa19

RePack

Assassins Creed: Odyssey

RePack

NEED FOR SPEED™ PAYBACK

4 сезон

9 сезон

Бесстыжие 9 сезон

Все сериалы

все сериалы на PB.wtf

RePack

FAR CRY 5
  

Лимонадный Джо / Limonádový Joe aneb Konská opera (Ольдржих Липский) [1964, мюзикл, мелодрама, комедия, приключения, вестерн, BDRip 720p by msltel] DUB, MVO pb.wtf

Лимонадный Джо через торрент pb.wtf

Размер: 3.3 GB | Добавлен: 3 года 6 мес. назад | Торрент скачан:53 раза
Скачать  

21-04-2017 08:24 Лимонадный Джо Скачать торрент  

Название: Лимонадный Джо
Оригинальное название: Limonádový Joe aneb Konská opera
Год выпуска: 1964
Страна: Чехословакия
Жанр: мюзикл, мелодрама, комедия, приключения, вестерн
Продолжительность: 01:39:23
Перевод: дублированный, профессиональный многоголосый

Режиссёр: Ольдржих Липский

В ролях: Карел Фиала, Милош Копецкий, Квета Фиалова, Ольга Шоберова, Рудольф Дейл, Богуш Загорский, Йозеф Глиномаз, Карел Эффа, Вальдемар Матушка, Эман Фиала, Владимир Меншик, Йири Лир, Иржи Стеймар, Ярослав Штерци, Ольдржих Лукеш, Алоис Дворски, Милош Недбал, Ярослав Мареш, Антонин Шура, Рудольф Кортес, Виктор Очасек, Станислав Литера, Рудольф Принц, Вацлав Штекль, Милош Ваврушка

Описание: В маленьком городке на «Диком западе» крепкие парни развлекаются дракой, стрельбой и пьют виски. Нравы там грубы и жестоки, закон один — «Кто кого раньше застрелит». Даже шериф не в силах этому противостоять. Но однажды в салун заходит Он — Лимонадный Джо, и в городке начинается новая жизнь. В него влюбляются все первые красавицы городка. Секрет популярности героя - «Коло-локовый лимонад», напиток самого меткого стрелка и ловкого наездника... Фильм поставлен по пьесе Иржи Брдечки.



Качество: BDRip 720p
Формат: MKV
Видео: MPEG-4 AVC, 4183 Kбит/с, 1280x510, 23,976 кадра/с
Аудио 1: русский, AC3, 192 kbps, 1 ch, 48 kHz [дублированный]
Аудио 2: русский, AC3, 192 kbps, 1 ch, 48 kHz [профессиональный многоголосый]
Аудио 3: чешский, AC3, 192 kbps, 2 ch, 48 kHz [оригинал]
Субтитры 1: русские
Субтитры 2: английские
Имеются неименованные главы/чаптеры.
Общее
Уникальный идентификатор : 244549751465377042817893803357559245921 (0xB7FA91A500354270B2AB85B207C2CC61)
Полное имя : D:\Video\Лимонадный Джо.1964.BDRip.720p by msltel.mkv
Формат : Matroska
Версия формата : Version 4 / Version 2
Размер файла : 3,30 Гбайт
Продолжительность : 1 ч. 39 м.
Общий поток : 4761 Кбит/сек
Название фильма : Rip by msltel
Дата кодирования : UTC 2017-04-20 16:31:00
Программа кодирования : mkvmerge v8.2.0 ('World of Adventure') 64bit
Библиотека кодирования : libebml v1.3.1 + libmatroska v1.4.2

Видео
Идентификатор : 1
Формат : AVC
Формат/Информация : Advanced Video Codec
Профиль формата : High@L4.1
Параметр CABAC формата : Да
Параметр ReFrames формата : 9 кадров
Идентификатор кодека : V_MPEG4/ISO/AVC
Продолжительность : 1 ч. 39 м.
Битрейт : 4183 Кбит/сек
Ширина : 1280 пикселей
Высота : 510 пикселей
Соотношение сторон : 2,510
Режим частоты кадров : Постоянный
Частота кадров : 23,976 (24000/1001) кадра/сек
Цветовое пространство : YUV
Субдискретизация насыщенности : 4:2:0
Битовая глубина : 8 бит
Тип развёртки : Прогрессивная
Бит/(Пиксели*Кадры) : 0.267
Размер потока : 2,90 Гбайт (88%)
Библиотека кодирования : x264 core 146 r2538 121396c
Настройки программы : cabac=1 / ref=9 / deblock=1:-3:-2 / analyse=0x3:0x113 / me=umh / subme=11 / psy=1 / psy_rd=1.00:0.15 / mixed_ref=1 / me_range=32 / chroma_me=1 / trellis=2 / 8x8dct=1 / cqm=0 / deadzone=21,11 / fast_pskip=0 / chroma_qp_offset=-3 / threads=6 / lookahead_threads=1 / sliced_threads=0 / nr=0 / decimate=1 / interlaced=0 / bluray_compat=0 / constrained_intra=0 / bframes=8 / b_pyramid=2 / b_adapt=2 / b_bias=0 / direct=1 / weightb=1 / open_gop=0 / weightp=2 / keyint=230 / keyint_min=23 / scenecut=40 / intra_refresh=0 / rc_lookahead=40 / rc=crf / mbtree=0 / crf=19.5 / qcomp=0.60 / qpmin=0 / qpmax=69 / qpstep=4 / vbv_maxrate=62500 / vbv_bufsize=78125 / crf_max=0.0 / nal_hrd=none / filler=0 / ip_ratio=1.40 / pb_ratio=1.30 / aq=1:1.00
Язык : Czech
Default : Да
Forced : Нет

Аудио #1
Идентификатор : 2
Формат : AC-3
Формат/Информация : Audio Coding 3
Параметр Endianness формата : Big
Идентификатор кодека : A_AC3
Продолжительность : 1 ч. 39 м.
Вид битрейта : Постоянный
Битрейт : 192 Кбит/сек
Каналы : 1 канал
Расположение каналов : Front: C
Частота : 48,0 КГц
Частота кадров : 31,250 кадров/сек (1536 spf)
Битовая глубина : 16 бит
Метод сжатия : С потерями
Размер потока : 136 Мбайт (4%)
Заголовок : DUB
Язык : Russian
ServiceKind/String : Complete Main
Default : Да
Forced : Нет

Аудио #2
Идентификатор : 3
Формат : AC-3
Формат/Информация : Audio Coding 3
Параметр Endianness формата : Big
Идентификатор кодека : A_AC3
Продолжительность : 1 ч. 39 м.
Вид битрейта : Постоянный
Битрейт : 192 Кбит/сек
Каналы : 1 канал
Расположение каналов : Front: C
Частота : 48,0 КГц
Частота кадров : 31,250 кадров/сек (1536 spf)
Битовая глубина : 16 бит
Метод сжатия : С потерями
Размер потока : 136 Мбайт (4%)
Заголовок : MVO
Язык : Russian
ServiceKind/String : Complete Main
Default : Нет
Forced : Нет

Аудио #3
Идентификатор : 4
Формат : AC-3
Формат/Информация : Audio Coding 3
Параметр Endianness формата : Big
Идентификатор кодека : A_AC3
Продолжительность : 1 ч. 39 м.
Вид битрейта : Постоянный
Битрейт : 192 Кбит/сек
Каналы : 2 канала
Расположение каналов : Front: L R
Частота : 48,0 КГц
Частота кадров : 31,250 кадров/сек (1536 spf)
Битовая глубина : 16 бит
Метод сжатия : С потерями
Размер потока : 136 Мбайт (4%)
Заголовок : original
Язык : Czech
ServiceKind/String : Complete Main
Default : Нет
Forced : Нет

Текст #1
Идентификатор : 5
Формат : UTF-8
Идентификатор кодека : S_TEXT/UTF8
Идентификатор кодека/Информация : UTF-8 Plain Text
Продолжительность : 1 ч. 37 м.
Битрейт : 62 бит/сек
ElementCount : 918
Размер потока : 45,0 Кбайт (0%)
Заголовок : русские
Язык : Russian
Default : Нет
Forced : Нет

Текст #2
Идентификатор : 6
Формат : UTF-8
Идентификатор кодека : S_TEXT/UTF8
Идентификатор кодека/Информация : UTF-8 Plain Text
Продолжительность : 1 ч. 39 м.
Битрейт : 36 бит/сек
ElementCount : 746
Размер потока : 26,9 Кбайт (0%)
Заголовок : английские
Язык : English
Default : Нет
Forced : Нет

Меню
00:00:00.000 : en:Chapter 1
00:04:31.270 : en:Chapter 2
00:09:09.840 : en:Chapter 3
00:15:47.821 : en:Chapter 4
00:22:59.586 : en:Chapter 5
00:27:47.707 : en:Chapter 6
00:31:41.899 : en:Chapter 7
00:36:28.185 : en:Chapter 8
00:41:34.575 : en:Chapter 9
00:47:34.351 : en:Chapter 10
00:55:14.310 : en:Chapter 11
01:06:05.169 : en:Chapter 12
01:08:36.111 : en:Chapter 13
01:18:12.020 : en:Chapter 14
01:20:52.388 : en:Chapter 15
01:22:34.365 : en:Chapter 16
01:31:04.917 : en:Chapter 17
pb.wtf



Скачать Лимонадный Джо через торрент http://hostpic.gq/img/2017-04/21/0lgm0qru4t607b2cwxafh6id9.jpg Скачать фильм Лимонадный Джо через торрент бесплантно в хорошем качестве Описание: В маленьком городке на «Диком западе» крепкие парни развлекаются дракой, стрельбой и пьют виски. Нравы там грубы и жестоки, закон ... 10 10 3
Info! Золотая раздача, скачанное не засчитывается.
Торрент: Зарегистрирован [2017-04-21 08:24] · скачан: 53 раз
Статус: √ проверено
Размер: 3.3 GB
Как cкачать? Как скачать Лимонадный Джо через торрент | qTorrent

% Раздел Тема Автор DL S | L
Фильмы [HD 720p, 1080p] (Хороший звук DUB, MVO) [ 8.23 GB ] Лимонадный Джо / Limonádový Joe aneb Konská opera [1964 мюзикл BDRip 1080p by msltel] DUB MVO msltel Скачать
2 | 0

28-11-2019 20:33  

Отключить всю рекламу на сайте

21-04-2017 09:38 Лимонадный Джо Скачать торрент  

Что бы в муху метко бить, надо Коло-локу пить pb.wtf



    Дорогой пользователь! Огромная просьба, поблагодарите релизера, оцените раздачу и оставьте свои комментарий, если Вы скачали Лимонадный Джо через торрент бесплатно! Внесите свою лепту в развитие PiratBit!
    Комментировать посты могут только пользователи прошедшие не сложную регистрацию
    Показать сообщения:    

    Лимонадный Джо через торрент
    Скачать бесплатно Лимонадный Джо
    Лимонадный Джо скачать торрент
    Лимонадный Джо смотреть онлайн
    Cкачать фильм Лимонадный Джо бесплатно
    Лимонадный Джо скачать торрент в хорошем качестве
    Лимонадный Джо смотреть онлайн бесплатно в хорошем качестве


    Вы не можете начинать темы
    Вы не можете отвечать на сообщения
    Вы не можете редактировать свои сообщения
    Вы не можете удалять свои сообщения
    Вы не можете голосовать в опросах
    Вы не можете прикреплять файлы к сообщениям
    Вы можете скачивать файлы