новый адрес пиратбит piratbit
Мега распродажа FORZA HORIZON 4 ULTIMATE+ВСЕ DLC+ОНЛАЙН всего за 499р. 349 руб. (супер цена). Внимание количество ограничено!!!

iTunes

1+1

iTunes

мы

iTunes

1

iTunes

Чернобыль

iTunes

Ральф против интернета

Лицензия

ПШазам

Лицензия

Игра престолов

Лицензия

30
pack

ВАЖНО

!!Акция!!

Alien_RageХит недели

RePack

Resident Evil 21

ИГРА 18+

pack

RePack

Metro:Exodus

!!Акция!!

Alien_Rage

RePack

fifa19

RePack

Assassins Creed: Odyssey

RePack

NEED FOR SPEED™ PAYBACK

3 сезон

9 сезон

Бесстыжие 9 сезон

Все сериалы

все сериалы на PB.wtf

RePack

FAR CRY 5
Ребята, катастрофически не хватает 1900р. для оплаты серверов за Октябрь (всвязи с блокировками трафик упал в 3 раза), 1-2р., выручайте.
  

ПираМММида (Эльдар Салаватов) [2011 г., Боевик, триллер, драма, криминал, BDRip 1080p, Оригинал] pb.wtf

ПираМММида через торрент pb.wtf

Размер: 15.04 GB | Добавлен: 2 года 6 мес. назад | Торрент скачан:55 раз
Скачать  

21-04-2017 12:11 ПираМММида Скачать торрент  

ПираМММида
Год выпуска: 2011
Страна: Россия
Жанр: Боевик, триллер, драма, криминал
Продолжительность: 01:49:45
Перевод: Оригинал
Субтитры: Нет

Режиссер: Эльдар Салаватов

В ролях: Алексей Серебряков, Пётр Фёдоров мл., Фёдор Бондарчук, Юрий Цурило, Артём Михалков, Алексей Горбунов, Анна Михалкова, Екатерина Вилкова, Даниил Спиваковский, Игорь Яцко, Никита Салопин, Сергей Колтаков, Анастасия Ричи, Сюзанна Шпак, Юлия Гришина, Пётр Зекавица, Николай Ковбас, Георгий Сульгин, Богдан Титомир, Владимир Пермяков, Вячеслав Воробьев-Ликеров, Елена Замятина, Геннадий Давыдько, Николай Кириченко, Валерия Тимофеева, Андрей Карако, Андрей Перепечко, Денис Никитик, Анна Полупанова, Николай Рябычин, Светлана Зеленковская, Дмитрий Врангель, Николай Титов, Анна Кисель, Вячеслав Шкалидо, Борис Борисенок, Виктор Гудинович, Алла Ельяшевич, Елена Борисова, Владимир Соснин, Андре

Описание: Россия, начало 90-х. Страна в процессе болезненного перехода от сверхцентрализованной плановой экономики к рыночным отношениям. Простые люди, прежде жившие в условиях стабильности, растеряны и перепуганы. Все пришло в движение, ход истории разворачивается на глазах. Поворотные моменты истории всегда способствуют появлению всевозможных самозванцев и талантливых мошенников. Сергей Мамонтов ищет, куда применить себя и свой интеллект. И находит. Мамонтов заказывает макет «ценной бумаги» с имперской вязью, богатым орнаментом, водяными знаками и собственным портретом в самом центре. Своим «деньгам» он назначает цену сам и продает их по принципу: сегодня всегда дороже, чем вчера. Началась активная рекламная кампания. Чуть больше двух недель оказалось достаточно, чтобы народ уже выстроился в очереди за «мамонтовками», а Мамонтов стал едва ли не национальным героем. И могущественные банкиры, и властные структуры в растерянности - никто не имеет понятия, как прекратить этот беспредел - а в МММ уже набралось больше 10 миллионов вкладчиков… Заговоры, похищения людей, погони, заказные убийства. И немного любви.

Качество: BDRip (1080p)
Формат: MKV
Видео кодек: AVC
Аудио кодек: DTS
Видео: MPEG-4 AVC, (1920x816),17 700 Кбит/с, 23.976 кадра/сек
Аудио#1: DTS, 6 ch,1536 kbps (Rus) 48.0 KHz Оригинал
скриншот   скриншот   скриншот  

Тип потока: Видео
Длительность: 01:49:45
Кодек: AVC
Кодек/описание: Advanced Video Codec
Кодек/профиль: High@L4.1
Кодек/ID: V_MPEG4/ISO/AVC
Кодек/CABAC: Yes
Кодек/ReFrames: 5 frames
Размеры изображения: 1920 x 816 (2.35:1)
Частота кадров: 23.976 fps
Частота кадров/тип: Constant
Размер потока: 13.6 GiB (90%)
Битрейт: 17.7 Mbps
Библиотека кодирования: x264 core 115 r1995 c1e60b9
Цветовое пространство: YUV
Тип развёртки: Progressive
Колориметрия: 4:2:0
Глубина: 8 bits
:
Тип потока: Звук #1
Язык: Russian
Длительность: 01:49:45.920
Кодек: DTS
Кодек/описание: Digital Theater Systems
Режим смешивания: Header stripping
Кодек/ID: A_DTS
Частота дискретизации: 48.0 KHz
Каналов: 6 channels
Битрейт: 1 509 Kbps
Битрейт/тип: Constant
Размер потока: 1.16 GiB (8%)
Глубина: 16 bits
Метод сжатия: Lossy

pb.wtf



Скачать ПираМММида через торрент http://pic1.kartinco.top/images/11/76b34.jpg Скачать фильм ПираМММида через торрент бесплантно в хорошем качестве Описание: Россия, начало 90-х. Страна в процессе болезненного перехода от сверхцентрализованной плановой экономики к рыночным отношениям. ... 9.4 10 15
Info! Золотая раздача, скачанное не засчитывается.
Торрент: Зарегистрирован [2017-04-21 12:11] · скачан: 55 раз
Статус: √ проверено
Размер: 15.04 GB
Как cкачать? Как скачать ПираМММида через торрент | qTorrent

% Раздел Тема Автор DL S | L
Наши фильмы (HD, WEB-DL 720p, 1080p) [ 11.99 GB ] ПираМММида [2011 биография BDRip 1080p by msltel] msltel Скачать
3 | 0
Наши фильмы (HD, WEB-DL 720p, 1080p) [ 3.83 GB ] ПираМММида [2011 биография BDRip 720p by msltel] msltel Скачать
6 | 0
Наши фильмы (Blu-ray, BD-Remux, HDDVD) [ 22.41 GB ] Пирамммида [2011 биография Blu-ray 1080p] bober100 Скачать
1 | 0
Наши фильмы 2010-2011 [ 2.14 GB ] ПираМММида [2011 биография BDRip by msltel] msltel Скачать
3 | 0
Наши фильмы (HD, WEB-DL 720p, 1080p) [ 6.55 GB ] ПираМММида [2011 биография BDRip 720р] smaster Скачать
1 | 0
Наши фильмы 2010-2011 [ 2.04 GB ] ПираМММида [2011 биография DVDRip] Anonymous Скачать
1 | 0
Наши фильмы 2010-2011 [ 1.28 GB ] Пирамммида [2011 ьная биография BDRip] Sудья Скачать
1 | 0


>> Регистрируемся здесь <<






Отзывы и комментарии о схеме читаем и пишем здесь: ---> Отзывы и комментарии о схеме

Новые благодарочки в телеграм довольных пользователей:
скриншот   скриншот   скриншот   скриншот   скриншот
    Дорогой пользователь! Огромная просьба, поблагодарите релизера, оцените раздачу и оставьте свои комментарий, если Вы скачали ПираМММида через торрент бесплатно! Внесите свою лепту в развитие PiratBit!
    Комментировать посты могут только пользователи прошедшие не сложную регистрацию
    Показать сообщения:    

    ПираМММида через торрент
    Скачать бесплатно ПираМММида
    ПираМММида скачать торрент
    ПираМММида смотреть онлайн
    Cкачать фильм ПираМММида бесплатно
    ПираМММида скачать торрент в хорошем качестве
    ПираМММида смотреть онлайн бесплатно в хорошем качестве


    Вы не можете начинать темы
    Вы не можете отвечать на сообщения
    Вы не можете редактировать свои сообщения
    Вы не можете удалять свои сообщения
    Вы не можете голосовать в опросах
    Вы не можете прикреплять файлы к сообщениям
    Вы можете скачивать файлы