Ссылка на приватное зеркало нашего сайта всего за 1$. Внимание количество ограничено!!!

2 сезон

iTunes

1 сезон

1

iTunes

iTunes

iTunes

1 сезон

RePack

30

ИГРА 18+

pack

ВАЖНО

!!Акция!!

Alien_RageХит недели

RePack

MK11
pack

Забери бонус

RePack

jed

!!Акция!!

Alien_Rage

RePack

fifa19

RePack

Assassins Creed: Odyssey

RePack

NEED FOR SPEED™ PAYBACK

4 сезон

9 сезон

Бесстыжие 9 сезон

Все сериалы

все сериалы на PB.wtf

RePack

FAR CRY 5
  

Хорошие вибрации / Good Vibrations (Лиза Баррос ДСа, Глен Лейберн) [2012, драма, биография, музыка, BDRip 1080p] [MVO] (FocusStudio) pb.wtf

Хорошие вибрации через торрент pb.wtf

Размер: 9.37 GB | Добавлен: 3 года 6 мес. назад | Торрент скачан:50 раз
Скачать  

21-04-2017 21:39 Хорошие вибрации Скачать торрент  

Хорошие вибрации / Good Vibrations
Год выхода: 2012
Жанр: драма, биография, музыка
Выпущено: Великобритания, Ирландия
Продолжительность: 01:42:45
Озвучивание: Профессиональное (многоголосое закадровое) FocusStudio
Субтитры: русские (форсированные на песни и полные), английские

Режиссер: Лиза Баррос ДСа, Глен Лейберн

В ролях: Лиам Каннингэм, Джоди Уиттакер, Дилан Моран, Дэвид Уилмот, Эндрю Симпсон, Карл Джонсон, Марк Райдер, Ричард Дормер, Киллиан Скотт, Ниал Райт

О фильме:
Жил в Белфасте в 70х годах такой себе Терри Хули, только он был особенный, настоящий бунтарь и любитель музыки. И тут ему приходит идея открыть музыкальный магазинчик "Good Vibrations". Только он оказался в самом центре конфликта в Северной Ирландии, но Терри это не сколько не смущала, пока его одногодки воевали в этом хаосе, Терри слушал музыку. И вскоре стал лидером одной группы, чтобы вернуть его родному городу жизнь...





Качество: BDRip 1080p
Формат: MKV
Видео: 1920x816 (2.35:1), 23,976 fps, AVC, ~11500 kbps
Аудио: AC3, 6 ch, 48 kHz, 640 kbps (MVO FocusStudio)
Аудио: AC3, 6 ch, 48 kHz, 640 kbps (Original)
Format : Matroska
Format version : Version 4 / Version 2
File size : 9.37 GiB
Duration : 1h 42mn
Overall bit rate : 13.1 Mbps
Movie name : Good Vibrations (2012) @ FocusStudio
Encoded date : UTC 2017-04-19 19:38:06
Writing application : mkvmerge v8.3.0 ('Over the Horizon') 64bit
Writing library : libebml v1.3.1 + libmatroska v1.4.2
Video
ID : 1
Format : AVC
Format/Info : Advanced Video Codec
Format profile : High@L4.1
Format settings, CABAC : Yes
Format settings, ReFrames : 5 frames
Codec ID : V_MPEG4/ISO/AVC
Duration : 1h 42mn
Bit rate : 11.5 Mbps
Width : 1 920 pixels
Height : 816 pixels
Display aspect ratio : 2.35:1
Frame rate mode : Constant
Frame rate : 23.976 (24000/1001) fps
Color space : YUV
Chroma subsampling : 4:2:0
Bit depth : 8 bits
Scan type : Progressive
Bits/(Pixel*Frame) : 0.307
Stream size : 8.27 GiB (88%)
Writing library : x264 core 148 r2744+55 950084e t_mod_Custom [8-bit@all X86_64]
Encoding settings : cabac=1 / ref=5 / deblock=1:-3:-3 / analyse=0x3:0x133 / me=tesa / subme=11 / psy=1 / fade_compensate=0.00 / psy_rd=1.05:0.00 / mixed_ref=1 / me_range=48 / chroma_me=1 / trellis=2 / 8x8dct=1 / cqm=0 / deadzone=21,11 / fast_pskip=0 / chroma_qp_offset=-2 / threads=12 / lookahead_threads=2 / sliced_threads=0 / nr=0 / decimate=0 / interlaced=0 / bluray_compat=0 / constrained_intra=0 / fgo=0 / bframes=8 / b_pyramid=2 / b_adapt=2 / b_bias=0 / direct=3 / weightb=1 / open_gop=0 / weightp=2 / keyint=240 / keyint_min=24 / scenecut=40 / intra_refresh=0 / rc_lookahead=150 / rc=crf / mbtree=0 / crf=15.0000 / qcomp=0.60 / qpmin=0:0:0 / qpmax=69:69:69 / qpstep=4 / vbv_maxrate=62500 / vbv_bufsize=78125 / crf_max=0.0 / nal_hrd=none / filler=0 / ip_ratio=1.30 / pb_ratio=1.20 / aq=3:0.80 / aq-sensitivity=10.00 / aq-factor=1.00:1.00:1.00 / aq2=0 / aq3=0
Language : English
Default : Yes
Forced : No
Color range : Limited
Matrix coefficients : BT.709
Audio #1
ID : 2
Format : AC-3
Format/Info : Audio Coding 3
Mode extension : CM (complete main)
Format settings, Endianness : Big
Codec ID : A_AC3
Duration : 1h 42mn
Bit rate mode : Constant
Bit rate : 640 Kbps
Channel(s) : 6 channels
Channel positions : Front: L C R, Side: L R, LFE
Sampling rate : 48.0 KHz
Frame rate : 31.250 fps (1536 spf)
Compression mode : Lossy
Stream size : 470 MiB (5%)
Title : DD5.1 MVO FocusStudio
Language : Russian
Default : Yes
Forced : No
Audio #2
ID : 3
Format : AC-3
Format/Info : Audio Coding 3
Mode extension : CM (complete main)
Format settings, Endianness : Big
Codec ID : A_AC3
Duration : 1h 42mn
Bit rate mode : Constant
Bit rate : 640 Kbps
Channel(s) : 6 channels
Channel positions : Front: L C R, Side: L R, LFE
Sampling rate : 48.0 KHz
Frame rate : 31.250 fps (1536 spf)
Compression mode : Lossy
Stream size : 470 MiB (5%)
Title : DD5.1 Original
Language : English
Default : No
Forced : No
Text #1
ID : 4
Format : ASS
Codec ID : S_TEXT/ASS
Codec ID/Info : Advanced Sub Station Alpha
Compression mode : Lossless
Title : Forced (Songs)
Language : Russian
Default : Yes
Forced : Yes
Text #2
ID : 5
Format : UTF-8
Codec ID : S_TEXT/UTF8
Codec ID/Info : UTF-8 Plain Text
Title : Full (FocusStudio)
Language : Russian
Default : No
Forced : No
Text #3
ID : 6
Format : UTF-8
Codec ID : S_TEXT/UTF8
Codec ID/Info : UTF-8 Plain Text
Title : Original
Language : English
Default : No
Forced : No
Menu
00:00:00.000 : en:Chapter 1
00:07:51.137 : en:Chapter 2
00:15:35.643 : en:Chapter 3
00:23:43.338 : en:Chapter 4
00:31:56.247 : en:Chapter 5
00:40:38.519 : en:Chapter 6
00:49:13.492 : en:Chapter 7
00:55:27.449 : en:Chapter 8
01:04:55.892 : en:Chapter 9
01:14:10.154 : en:Chapter 10
01:20:39.835 : en:Chapter 11
01:26:30.143 : en:Chapter 12
pb.wtf



Скачать Хорошие вибрации через торрент http://i91.fastpic.ru/big/2017/0422/3f/e3217e57769c327dac592f75eac0c23f.png Скачать фильм Хорошие вибрации через торрент бесплантно в хорошем качестве О фильме:Жил в Белфасте в 70х годах такой себе Терри Хули, только он был особенный, настоящий бунтарь и любитель музыки. И тут ему приходит ... 10 10 4
Торрент: Зарегистрирован [2017-04-21 21:39] · скачан: 50 раз
Статус: √ проверено
Размер: 9.37 GB
Как cкачать? Как скачать Хорошие вибрации через торрент | qTorrent

% Раздел Тема Автор DL S | L
Фильмы с авторской озвучкой [ 7.54 GB ] Хорошие вибрации / Good Vibrations [2012 биография музыка BDRip 1080p by msltel] AVO msltel Скачать
1 | 0
Фильмы с авторской озвучкой [ 2.93 GB ] Хорошие вибрации / Good Vibrations [2012 биография музыка BDRip 720p by msltel] AVO msltel Скачать
1 | 0
Фильмы с авторской озвучкой [ 2.18 GB ] Хорошие вибрации / Good Vibrations [2012 биография музыка HDRip Авторский одноголосый] coc900 Скачать
1 | 0
Гонзо [ 2.04 GB ] Хорошие Вибрации / ATK Good Vibrations [2011 All Sex Amateur Young Ladies DVDRip] Shmel Скачать
1 | 0

28-11-2019 20:33  

Отключить всю рекламу на сайте

    Дорогой пользователь! Огромная просьба, поблагодарите релизера, оцените раздачу и оставьте свои комментарий, если Вы скачали Хорошие вибрации через торрент бесплатно! Внесите свою лепту в развитие PiratBit!
    Комментировать посты могут только пользователи прошедшие не сложную регистрацию
    Показать сообщения:    

    Хорошие вибрации через торрент
    Скачать бесплатно Хорошие вибрации
    Хорошие вибрации скачать торрент
    Хорошие вибрации смотреть онлайн
    Cкачать фильм Хорошие вибрации бесплатно
    Хорошие вибрации скачать торрент в хорошем качестве
    Хорошие вибрации смотреть онлайн бесплатно в хорошем качестве


    Вы не можете начинать темы
    Вы не можете отвечать на сообщения
    Вы не можете редактировать свои сообщения
    Вы не можете удалять свои сообщения
    Вы не можете голосовать в опросах
    Вы не можете прикреплять файлы к сообщениям
    Вы можете скачивать файлы