Ссылка на приватное зеркало нашего сайта всего за 1$. Внимание количество ограничено!!!

2 сезон

iTunes

1 сезон

1

2 сезон

2 сезон

iTunes

1 сезон

RePack

30

Ultimate

ВАЖНО

ИГРА 18+

pack

RePack

MK11
pack

Забери бонус

RePack

jed

!!Акция!!

Alien_Rage

RePack

fifa19

RePack

Assassins Creed: Odyssey

RePack

NEED FOR SPEED™ PAYBACK

4 сезон

9 сезон

Бесстыжие 9 сезон

Все сериалы

все сериалы на PB.wtf

RePack

FAR CRY 5
  

Городские легенды / Городские мифы / Urban Myths / Сезон: 1 / Серии 1-5 из 5 (Бен Палмер / Ben Palmer, Джеффри Сакс / Geoffrey Sax, Дэн Зефф / Dan Zeff) [2017, Великобритания, комедия, приключения, биография, HDTVRip 720p] MVO [BaibaKo] pb.wtf

Городские легенды через торрент pb.wtf

Размер: 2.32 GB | Добавлен: 3 года 5 мес. назад | Торрент скачан:40 раз
Скачать  

22-04-2017 02:04 Городские легенды Скачать торрент  

Городские легенды / Городские мифы / Urban Myths


  • Год выпуска: 2017
  • Страна: Великобритания
  • Жанр: комедия, приключения, биография
  • Продолжительность: 00:22:19 (Серия)
  • Перевод: Профессиональный многоголосый [BaibaKo]
  • Режиссер: Бен Палмер / Ben Palmer, Джеффри Сакс / Geoffrey Sax, Дэн Зефф / Dan Zeff
  • В ролях:

    Бен Чаплин (Cary Grant), Эйдан Гиллен (Timothy Leary), Маргарет Клуни (Marcie), Тим Штерн (Auctioneer), Генри Гудман (Cary Grant's Father), Марсия Уоррен (Cary Grant's Mother), Zephryn Taitte (Anthony), Kathryn Bond (Policewoman), Мадлен Боуйер (Marianne Roussimoff), Ноэль Кларк (Muhammed Ali), David Ellis (Policeman), Дастин Демри-Бёрнс (Josef)


  • Абсурдные легенды о звездах. От сюжета о Бобе Дилане, зашедшем в гости к какому-то не тому Дэйву, до побега Майкла Джексона, Элизабет Тейлор и Марлона Брандо из Нью-Йорка после терактов 11 сентября 2001 года. Роль Джексона исполнил Джозеф Файнс («Влюбленный Шекспир»), Тейлор сыграла Стокард Ченнинг («Бриолин»), а Брандо — Брайан Кокс («Троя»). Помимо них в «Urban Myths» появится Иван Реон («Игра престолов») в роли молодого Гитлера и Руперт Гринт («Гарри Поттер»), сыгравший его друга. Также в сериале снялась Кэрри Фишер, умершая 27 декабря 2016 года. Фишер сыграла продавщицу бургеров. Это одна из последних ролей актрисы.
  • Рейтинг:



  • Качество: HDTVRip 720p
  • Формат: :MKV
  • Видео кодек: AVC
  • Аудио кодек: AC3
  • Видео: 1280x720 (16:9), 2220 kbps, 25 fps, 0,096 bpp
  • Аудио №1: русский / 5.1 / 48 kHz / 384 kbps / 16 bit |[BaibaKo]|
  • Аудио №2: английский / 5.1 / 48 kHz / 384 kbps / 16 bit
  • Релиз от: GEKADOL

    Внимание! Раздача ведётся путём добавления новых серий; при каждом добавлении создаётся новый торрент. Чтобы начать докачку новой серии, пользователям необходимо сделать следующее:
    (1) остановить скачивание,
    (2) удалить старый торрент у себя из клиента (старые серии удалять не надо),
    (3) скачать новый торрент и запустить его у себя в клиенте вместо старого, при этом указать клиенту путь в старую папку куда и должно происходить скачивание новых серий.
    Ваш клиент при этом должен произвести хеширование (проверку) старой папки (если не производит сам - помогите ему сделать это), и будет докачивать только те серии которых у вас ещё нет. Старые серии при этом не удаляются, а продолжают раздаваться!
    Eсли вы уже удалили старые серии, то предотвратить повторную закачку старых серий можно, отжав галочку в соответствующих местах при запуске нового торрента. По возможности, желательно не удалять старые серии как можно дольше чтобы релизёр не столько продолжал раздавать старые серии, а смог сконцентрироваться на новых.

    General
    Unique ID : 235526029440251258630994301243730310864 (0xB130A9CC98F9774A8B2192AFB89E36D0)
    Complete name : K:\Городские легенды (Urban Myths)\Urban.Myths.s01e01.HDTV720p.Rus.Eng.BaibaKo.tv.mkv
    Format : Matroska
    Format version : Version 4 / Version 2
    File size : 477 MiB
    Duration : 22 min
    Overall bit rate : 2 990 kb/s
    Encoded date : UTC 2017-04-22 01:49:17
    Writing application : mkvmerge v10.0.0 ('To Drown In You') 64bit
    Writing library : libebml v1.3.4 + libmatroska v1.4.5

    Video
    ID : 1
    Format : AVC
    Format/Info : Advanced Video Codec
    Format profile : High@L3.1
    Format settings, CABAC : Yes
    Format settings, ReFrames : 4 frames
    Codec ID : V_MPEG4/ISO/AVC
    Duration : 22 min
    Bit rate : 2 220 kb/s
    Width : 1 280 pixels
    Height : 720 pixels
    Display aspect ratio : 16:9
    Frame rate mode : Constant
    Frame rate : 25.000 FPS
    Color space : YUV
    Chroma subsampling : 4:2:0
    Bit depth : 8 bits
    Scan type : Progressive
    Bits/(Pixel*Frame) : 0.096
    Stream size : 354 MiB (74%)
    Writing library : x264 core 148 r2744 b97ae06
    Encoding settings : cabac=1 / ref=3 / deblock=1:0:0 / analyse=0x3:0x113 / me=hex / subme=7 / psy=1 / psy_rd=1.00:0.00 / mixed_ref=1 / me_range=16 / chroma_me=1 / trellis=1 / 8x8dct=1 / cqm=0 / deadzone=21,11 / fast_pskip=1 / chroma_qp_offset=-2 / threads=12 / lookahead_threads=2 / sliced_threads=0 / nr=0 / decimate=1 / interlaced=0 / bluray_compat=0 / constrained_intra=0 / bframes=3 / b_pyramid=2 / b_adapt=1 / b_bias=0 / direct=1 / weightb=1 / open_gop=0 / weightp=2 / keyint=250 / keyint_min=25 / scenecut=40 / intra_refresh=0 / rc_lookahead=40 / rc=crf / mbtree=1 / crf=18.0 / qcomp=0.60 / qpmin=0 / qpmax=69 / qpstep=4 / ip_ratio=1.40 / aq=1:1.00
    Default : No
    Forced : No

    Audio #1
    ID : 2
    Format : AC-3
    Format/Info : Audio Coding 3
    Mode extension : CM (complete main)
    Format settings, Endianness : Big
    Codec ID : A_AC3
    Duration : 22 min
    Bit rate mode : Constant
    Bit rate : 384 kb/s
    Channel(s) : 6 channels
    Channel positions : Front: L C R, Side: L R, LFE
    Sampling rate : 48.0 kHz
    Frame rate : 31.250 FPS (1536 spf)
    Compression mode : Lossy
    Delay relative to video : 16 ms
    Stream size : 61.3 MiB (13%)
    Language : Russian
    Default : Yes
    Forced : No

    Audio #2
    ID : 3
    Format : AC-3
    Format/Info : Audio Coding 3
    Mode extension : CM (complete main)
    Format settings, Endianness : Big
    Codec ID : A_AC3
    Duration : 22 min
    Bit rate mode : Constant
    Bit rate : 384 kb/s
    Channel(s) : 6 channels
    Channel positions : Front: L C R, Side: L R, LFE
    Sampling rate : 48.0 kHz
    Frame rate : 31.250 FPS (1536 spf)
    Compression mode : Lossy
    Stream size : 61.3 MiB (13%)
    Language : English
    Default : No
    Forced : No



    Скриншоты:
    скриншот   скриншот   скриншот   скриншот   скриншот   скриншот   скриншот  
    скриншот  

    Раздача ведётся путём добавления новых серий. Добавлены 3-5 серии (04.06.2017).Просьба перекачать торрент файл.

    pb.wtf



  • Скачать Городские легенды через торрент http://i89.fastpic.ru/big/2017/0422/9f/dabb5e1a95f3e5ad461eb6ee0610c79f.jpg Скачать фильм Городские легенды через торрент бесплантно в хорошем качестве qw.png Абсурдные легенды о звездах. От сюжета о Бобе Дилане, зашедшем в гости к какому-то не тому Дэйву, до побега Майкла Джексона, ... 10 10 3
    Info! Золотая раздача, скачанное не засчитывается.
    Торрент: Зарегистрирован [2017-06-04 02:25] · скачан: 40 раз
    Статус: √ проверено
    Размер: 2.32 GB
    Как cкачать? Как скачать Городские легенды через торрент | qTorrent

    28-11-2019 20:33  

    Отключить всю рекламу на сайте

    04-06-2017 02:32 Городские легенды Скачать торрент  

    s01e05 Величайший. На все времена.
    The Greatest. OF ALL TIMES.
    s01e04 Когда Кэри Грант познакомил Тимоти Лири с ЛСД
    When Cary Grant Introduced Timothy Leary to LSD
    s01e03 Адольф Гитлер - художник
    Adolf Hitler The Artist
    s01e02 В ожидании Андрэ
    Waiting for Andre
    s01e01 Достучаться до Дейва
    Bob Dylan: Knockin' on Dave's Door

    pb.wtf



      Дорогой пользователь! Огромная просьба, поблагодарите релизера, оцените раздачу и оставьте свои комментарий, если Вы скачали Городские легенды через торрент бесплатно! Внесите свою лепту в развитие PiratBit!
      Комментировать посты могут только пользователи прошедшие не сложную регистрацию
      Показать сообщения:    

      Городские легенды через торрент
      Скачать бесплатно Городские легенды
      Городские легенды скачать торрент
      Городские легенды смотреть онлайн
      Cкачать фильм Городские легенды бесплатно
      Городские легенды скачать торрент в хорошем качестве
      Городские легенды смотреть онлайн бесплатно в хорошем качестве


      Вы не можете начинать темы
      Вы не можете отвечать на сообщения
      Вы не можете редактировать свои сообщения
      Вы не можете удалять свои сообщения
      Вы не можете голосовать в опросах
      Вы не можете прикреплять файлы к сообщениям
      Вы можете скачивать файлы