Ссылка на приватное зеркало нашего сайта всего за 1$. Внимание количество ограничено!!!

2 сезон

iTunes

1 сезон

1

2 сезон

2 сезон

iTunes

1 сезон

RePack

30

Ultimate

ВАЖНО

ИГРА 18+

pack

RePack

MK11
pack

Забери бонус

RePack

jed

!!Акция!!

Alien_Rage

RePack

fifa19

RePack

Assassins Creed: Odyssey

RePack

NEED FOR SPEED™ PAYBACK

4 сезон

9 сезон

Бесстыжие 9 сезон

Все сериалы

все сериалы на PB.wtf

RePack

FAR CRY 5
  

Оставленные / Остатки / The Leftovers / Сезон: 3 / Серии 1-8 из 8 (Мими Ледер / Mimi Leder) [2017, США, фэнтези, драма, детектив, WEB-DLRip-AVC] MVO [NewStudio] pb.wtf

Оставленные через торрент pb.wtf

Размер: 9.15 GB | Добавлен: 3 года 5 мес. назад | Торрент скачан:44 раза
Скачать  

22-04-2017 07:42 Оставленные Скачать торрент  


Оставленные / Остатки / The Leftovers

«Льготный период закончится»


  • Год выпуска: 2017
  • Страна: США
  • Жанр: фэнтези, драма, детектив
  • Продолжительность: 01:01:53 (Серия)
  • Перевод: Профессиональный многоголосый закадровый
  • Режиссер: Мими Ледер / Mimi Leder
  • В ролях:

    Джастин Теру (Kevin Garvey), Эми Бреннеман (Laurie Garvey), Кристофер Экклстон (Matt Jamison), Лив Тайлер (Meg Abbott), Крис Зилка (Tom Garvey), Маргарет Куэлли (Jill Garvey), Кэрри Кун (Nora Durst), Эмили Мид (Aimee), Аманда Уоррен (Lucy Warburton), Энн Дауд (Patti Levin), Майкл Гэстон (Dean), Макс Карвер (Adam Frost)


  • Действие разворачивается вокруг группы оставшихся людей в пригородной общине городка Мейплтон. Они должны начать заново строить свои жизни после внезапного и загадочного исчезновения более ста человек.
  • Рейтинг:



  • Качество: WEB-DLRip-AVC
  • Формат: :MPEG-4
  • Видео кодек: AVC
  • Аудио кодек: AC3
  • Видео: 2000 Кбит/сек, 1024*576 (16:9), в 23,976 (24000/1001) кадра/сек, AVC
  • Аудио №1: русский 384 Кбит/сек, 48,0 КГц, 16 бит, 6 каналов, AC-3 |[NewStudio]|
  • Аудио №2: английский 384 Кбит/сек, 48,0 КГц, 16 бит, 6 каналов, AC-3
  • Релиз от: GEKADOL
    Внимание! Раздача ведётся путём добавления новых серий; при каждом добавлении создаётся новый торрент. Чтобы начать докачку новой серии, пользователям необходимо сделать следующее:
    (1) остановить скачивание,
    (2) удалить старый торрент у себя из клиента (старые серии удалять не надо),
    (3) скачать новый торрент и запустить его у себя в клиенте вместо старого, при этом указать клиенту путь в старую папку куда и должно происходить скачивание новых серий.
    Ваш клиент при этом должен произвести хеширование (проверку) старой папки (если не производит сам - помогите ему сделать это), и будет докачивать только те серии которых у вас ещё нет. Старые серии при этом не удаляются, а продолжают раздаваться!
    Eсли вы уже удалили старые серии, то предотвратить повторную закачку старых серий можно, отжав галочку в соответствующих местах при запуске нового торрента. По возможности, желательно не удалять старые серии как можно дольше чтобы релизёр не столько продолжал раздавать старые серии, а смог сконцентрироваться на новых.

    Общее
    Полное имя : K:\Остатки (Сезон 3) The Leftovers\The.Leftovers.s03e01.WEB-DLRip-AVC.NewStudio.TV.mp4
    Формат : MPEG-4
    Профиль формата : Base Media
    Идентификатор кодека : isom (isom/iso2/avc1/mp41)
    Размер файла : 1,14 Гбайт
    Продолжительность : 59 м. 2 с.
    Общий поток : 2758 Кбит/сек
    Программа кодирования : XviD4PSP 7.0.377 DAILY
    HDVideo : Yes
    encoding_info : MATROSKA / WEBM > MP4 Произвольный / H264 > X264 CBR 2000kbps HQ / AC3 > AC3 CBR 384kbps / EAC3 > AC3 CBR 384kbps

    Видео
    Идентификатор : 1
    Формат : AVC
    Формат/Информация : Advanced Video Codec
    Профиль формата : High@L4.1
    Параметр CABAC формата : Да
    Параметр ReFrames формата : 4 кадра
    Идентификатор кодека : avc1
    Идентификатор кодека/Информация : Advanced Video Coding
    Продолжительность : 58 м. 47 с.
    Битрейт : 2000 Кбит/сек
    Ширина : 1024 пикселя
    Высота : 576 пикселей
    Соотношение сторон : 16:9
    Режим частоты кадров : Постоянный
    Частота кадров : 23,976 (24000/1001) кадра/сек
    Цветовое пространство : YUV
    Субдискретизация насыщенности : 4:2:0
    Битовая глубина : 8 бит
    Тип развёртки : Прогрессивная
    Бит/(Пиксели*Кадры) : 0.141
    Размер потока : 838 Мбайт (72%)
    Библиотека кодирования : x264 core 148 r2762M 90a61ec
    Настройки программы : cabac=1 / ref=3 / deblock=1:-1:-1 / analyse=0x3:0x133 / me=hex / subme=7 / psy=1 / psy_rd=1.00:0.20 / mixed_ref=1 / me_range=16 / chroma_me=1 / trellis=1 / 8x8dct=1 / cqm=0 / deadzone=21,11 / fast_pskip=1 / chroma_qp_offset=-3 / threads=8 / lookahead_threads=1 / sliced_threads=0 / nr=0 / decimate=1 / interlaced=0 / bluray_compat=0 / constrained_intra=0 / bframes=3 / b_pyramid=2 / b_adapt=2 / b_bias=0 / direct=3 / weightb=1 / open_gop=0 / weightp=2 / keyint=230 / keyint_min=23 / scenecut=40 / intra_refresh=0 / rc_lookahead=40 / rc=cbr / mbtree=1 / bitrate=2000 / ratetol=1.0 / qcomp=0.60 / qpmin=0 / qpmax=69 / qpstep=4 / vbv_maxrate=2000 / vbv_bufsize=30000 / nal_hrd=none / filler=0 / ip_ratio=1.40 / aq=1:1.00
    Язык : English

    Аудио #1
    Идентификатор : 2
    Формат : AC-3
    Формат/Информация : Audio Coding 3
    Расширение режима : CM (complete main)
    Параметр Endianness формата : Big
    Идентификатор кодека : ac-3
    Продолжительность : 59 м. 2 с.
    Вид битрейта : Постоянный
    Битрейт : 384 Кбит/сек
    Каналы : 6 каналов
    Расположение каналов : Front: L C R, Side: L R, LFE
    Частота : 48,0 КГц
    Частота кадров : 31,250 кадров/сек (1536 spf)
    Битовая глубина : 16 бит
    Метод сжатия : С потерями
    Размер потока : 162 Мбайт (14%)
    Заголовок : NewStudio.TV / NewStudio.TV
    Язык : Russian
    Default : Да
    Alternate group : 1

    Аудио #2
    Идентификатор : 3
    Формат : AC-3
    Формат/Информация : Audio Coding 3
    Расширение режима : CM (complete main)
    Параметр Endianness формата : Big
    Идентификатор кодека : ac-3
    Продолжительность : 58 м. 51 с.
    Вид битрейта : Постоянный
    Битрейт : 384 Кбит/сек
    Каналы : 6 каналов
    Расположение каналов : Front: L C R, Side: L R, LFE
    Частота : 48,0 КГц
    Частота кадров : 31,250 кадров/сек (1536 spf)
    Битовая глубина : 16 бит
    Метод сжатия : С потерями
    Размер потока : 162 Мбайт (14%)
    Язык : English
    Default : Нет
    Alternate group : 1



    Скриншоты:
    скриншот   скриншот   скриншот   скриншот   скриншот   скриншот   скриншот  
    скриншот  

    Раздача ведётся путём добавления новых серий. Добавлена 8 серия (07.06.2017).Просьба перекачать торрент файл.

    pb.wtf



  • Скачать Оставленные через торрент http://pic1.kartinco.top/images/11/thy7b.jpg Скачать фильм Оставленные через торрент бесплантно в хорошем качестве qw.png Действие разворачивается вокруг группы оставшихся людей в пригородной общине городка Мейплтон. Они должны начать заново строить ... 10 10 4
    Info! Золотая раздача, скачанное не засчитывается.
    Торрент: Зарегистрирован [2017-06-07 12:25] · скачан: 44 раз
    Статус: √ проверено
    Размер: 9.15 GB
    Как cкачать? Как скачать Оставленные через торрент | qTorrent



    Последний раз редактировалось: GEKADOL (2017-06-07 12:25), всего редактировалось 11 раз(а)

    28-11-2019 20:33  

    Отключить всю рекламу на сайте

    24-04-2017 08:49 Оставленные Скачать торрент  

    фильм добавлен два дня назад, но, Раздают: 2 [ 0 KB/s ] ))) посмотрел )))pb.wtf



    09-05-2017 18:13 Оставленные Скачать торрент  

    Как киноpb.wtf



    23-05-2017 05:06 Оставленные Скачать торрент  

    Это сериал, уже третий сезон. Вполне смотрибельно.pb.wtf



    26-05-2017 06:20 Оставленные Скачать торрент  

    6 серия расходится голос с видео, у всех так?pb.wtf



    07-06-2017 12:27 Оставленные Скачать торрент  

    LuckyHead писал(а):

    6 серия расходится голос с видео, у всех так?

    Заменена!!! pb.wtf



    24-08-2017 14:47 Оставленные Скачать торрент  

    Сериал отличный, но гопник в рекламе бесил основательно. Что за лютый ад!?pb.wtf



    10-09-2018 01:52 Оставленные Скачать торрент  

    Встаньте на раздачу плис.pb.wtf



    05-02-2019 13:19 Оставленные Скачать торрент  

    Встаньте на раздачуpb.wtf



      Дорогой пользователь! Огромная просьба, поблагодарите релизера, оцените раздачу и оставьте свои комментарий, если Вы скачали Оставленные через торрент бесплатно! Внесите свою лепту в развитие PiratBit!
      Комментировать посты могут только пользователи прошедшие не сложную регистрацию
      Показать сообщения:    

      Оставленные через торрент
      Скачать бесплатно Оставленные
      Оставленные скачать торрент
      Оставленные смотреть онлайн
      Cкачать фильм Оставленные бесплатно
      Оставленные скачать торрент в хорошем качестве
      Оставленные смотреть онлайн бесплатно в хорошем качестве


      Вы не можете начинать темы
      Вы не можете отвечать на сообщения
      Вы не можете редактировать свои сообщения
      Вы не можете удалять свои сообщения
      Вы не можете голосовать в опросах
      Вы не можете прикреплять файлы к сообщениям
      Вы можете скачивать файлы