новый адрес
Ссылка на приватное зеркало всего за 1$. Внимание количество ограничено!!!

iTunes

1+1

iTunes

мы

WEB-DL

1

iTunes

Чернобыль

iTunes

Ральф против интернета

Лицензия

ПШазам

Лицензия

Оно 2

Лицензия

30
pack

Вам бонус

ВАЖНО

!!Акция!!

Alien_RageХит недели

RePack

Resident Evil 21

ИГРА 18+

pack

RePack

jed

!!Акция!!

Alien_Rage

RePack

fifa19

RePack

Assassins Creed: Odyssey

RePack

NEED FOR SPEED™ PAYBACK

3 сезон

9 сезон

Бесстыжие 9 сезон

Все сериалы

все сериалы на PB.wtf

RePack

FAR CRY 5
Ребята, катастрофически не хватает 1900р. для оплаты серверов за Октябрь (всвязи с блокировками трафик упал в 3 раза), 1-2р., выручайте.
  

Никаких проблем! / Pas de probleme! (Жорж Лотнер) [1975, Комедия, DVDRip-AVC, MVO+DUB] от ExKinoRay pb.wtf

Никаких проблем! через торрент pb.wtf

Размер: 2.86 GB | Добавлен: 2 года 7 мес. назад | Торрент скачан:11 раз
Скачать  

22-04-2017 08:02 Никаких проблем! Скачать торрент  

Никаких проблем! / Pas de probleme!
Год выпуска: 1975
Страна: Франция
Жанр: Комедия
Продолжительность: 01:38:57
Перевод: Дубляж

Режиссер: Жорж Лотнер

Премьера в мире: 18 июня 1975

rating

В ролях: Миу-Миу, Бернар Менез, Анри Гибе, Жан Лефевр, Анни Дюпре, Паула Мур, Рене Сен-Сир, Мария Паком, Патрик Девэр, Лионель Витран

Описание: Фильм начинается необычно... с энергичной и долгой автопогони, в результате которой преследуемый и израненный тип врывается в первую попавшуюся ему квартиру и умирает на глазах изумленной хозяйки по имени Анита (Миу-Миу). Та, будучи не вполне в ладах с законом, решает избавиться от трупа, но... дверь захлопывается в самый неподходящий момент. Анита в поисках помощи цепляет на дискотеке обеспеченного и легкомысленного юнца по имени Жан-Пьер (Менез), который и не догадывается какие сюрпризы ждут его впереди... Уложив труп в багажник папиного ДээСа, парочка намеревается его выкинуть где-нибудь подальше, но внезапно объявившемуся отцу (Лефевр) срочно нужна его тачка и... труп уезжает с ни в чем не подозревающим родителем бездельника. Анита и Жан-Пьер обращаются к другу Аниты автомеханику с собственным хотродом и аферистом в душе по имени Даниэль (Гибе), и теперь уже троица начинает погоню за укатившим трупом... Забавно и энергично, хотя и легкомысленно до абсурда! Впрочем, почему "хотя"?

Доп. информация: Перевод: Дублированный (со вставками многоголосого), профессиональный многоголосый

Качество: DVDRip-AVC
Формат: MKV

Видео: MPEG-4 AVC, 3400 Кбит/с, 676x572@961x572, 25 кадров/сек
Аудио#1: Русский (AC3, 2 ch, 256 Кбит/с, 48 КГц)
Аудио#2: Русский (AC3, 2 ch, 256 Кбит/с, 48 КГц)
Аудио#3: Французский (AC3, 2 ch, 224 Кбит/с, 48 КГц)
Релиз от:




raw [info]: 676x572p 64:45 @ 25/1 fps (cfr)
x264 [info]: using SAR=64/45
x264 [info]: using cpu capabilities: MMX2 SSE2Fast LZCNT
x264 [info]: profile High, level 4.1
x264 [info]: frame I:1052 Avg QP:17.86 size: 65289
x264 [info]: frame P:30872 Avg QP:20.45 size: 31803
x264 [info]: frame B:116501 Avg QP:22.22 size: 12642
x264 [info]: consecutive B-frames: 1.7% 2.9% 6.9% 14.6% 13.8% 48.8% 8.3% 1.6% 0.7% 0.4% 0.1% 0.1% 0.1% 0.0% 0.0% 0.0% 0.1%
-----
Общее
Уникальный идентификатор : 229400576122712987627865087410128898869 (0xAC94F1A236D32EF58253C63D29314B35)
Полное имя : E:\Pas.de.problem.1975.DVDRip-AVC.ExKinoRay.mkv
Формат : Matroska
Версия формата : Version 2
Размер файла : 2,86 Гбайт
Продолжительность : 1 ч. 38 м.
Общий поток : 4138 Кбит/сек
Дата кодирования : UTC 2017-04-22 04:23:55
Программа кодирования : mkvmerge v7.8.0 ('River Man') 32bit built on Apr 3 2015 12:11:22
Библиотека кодирования : libebml v1.3.1 + libmatroska v1.4.2

Видео
Идентификатор : 1
Формат : AVC
Формат/Информация : Advanced Video Codec
Профиль формата : High@L4.1
Параметр CABAC формата : Да
Параметр ReFrames формата : 14 кадров
Идентификатор кодека : V_MPEG4/ISO/AVC
Продолжительность : 1 ч. 38 м.
Битрейт : 3400 Кбит/сек
Ширина : 676 пикселей
Высота : 572 пикселя
Соотношение сторон : 5:3
Соотношение сторон в оригинале : 5:3
Режим частоты кадров : Постоянный
Частота кадров : 25,000 кадров/сек
Цветовое пространство : YUV
Субдискретизация насыщенности : 4:2:0
Битовая глубина : 8 бит
Тип развёртки : Прогрессивная
Бит/(Пиксели*Кадры) : 0.352
Размер потока : 2,29 Гбайт (80%)
Библиотека кодирования : x264 core 148 r2638 7599210
Настройки программы : cabac=1 / ref=14 / deblock=1:-2:-2 / analyse=0x3:0x133 / me=umh / subme=10 / psy=1 / psy_rd=1.05:0.15 / mixed_ref=1 / me_range=32 / chroma_me=1 / trellis=2 / 8x8dct=1 / cqm=0 / deadzone=21,11 / fast_pskip=0 / chroma_qp_offset=-3 / threads=4 / lookahead_threads=1 / sliced_threads=0 / nr=0 / decimate=0 / interlaced=0 / bluray_compat=0 / constrained_intra=0 / bframes=16 / b_pyramid=2 / b_adapt=2 / b_bias=0 / direct=3 / weightb=1 / open_gop=0 / weightp=2 / keyint=250 / keyint_min=25 / scenecut=40 / intra_refresh=0 / rc=2pass / mbtree=0 / bitrate=3400 / ratetol=1.0 / qcomp=0.60 / qpmin=0 / qpmax=69 / qpstep=4 / cplxblur=20.0 / qblur=0.5 / ip_ratio=1.40 / pb_ratio=1.30 / aq=1:1.00
Язык : English
Default : Да
Forced : Нет
Цветовой диапазон : Limited
Основные цвета : BT.601 NTSC
Характеристики трансфера : BT.601
Коэффициенты матрицы : BT.601

Аудио #1
Идентификатор : 2
Формат : AC-3
Формат/Информация : Audio Coding 3
Расширение режима : CM (complete main)
Параметр Endianness формата : Big
Идентификатор кодека : A_AC3
Продолжительность : 1 ч. 38 м.
Вид битрейта : Постоянный
Битрейт : 256 Кбит/сек
Каналы : 2 канала
Расположение каналов : Front: L R
Частота : 48,0 КГц
Частота кадров : 31,250 кадров/сек (1536 spf)
Метод сжатия : С потерями
Размер потока : 181 Мбайт (6%)
Заголовок : Дубляж
Язык : Russian
Default : Да
Forced : Нет

Аудио #2
Идентификатор : 3
Формат : AC-3
Формат/Информация : Audio Coding 3
Расширение режима : CM (complete main)
Параметр Endianness формата : Big
Идентификатор кодека : A_AC3
Продолжительность : 1 ч. 38 м.
Вид битрейта : Постоянный
Битрейт : 256 Кбит/сек
Каналы : 2 канала
Расположение каналов : Front: L R
Частота : 48,0 КГц
Частота кадров : 31,250 кадров/сек (1536 spf)
Метод сжатия : С потерями
Размер потока : 181 Мбайт (6%)
Заголовок : Профессиональный
Язык : Russian
Default : Нет
Forced : Нет

Аудио #3
Идентификатор : 4
Формат : AC-3
Формат/Информация : Audio Coding 3
Расширение режима : CM (complete main)
Параметр Endianness формата : Big
Идентификатор кодека : A_AC3
Продолжительность : 1 ч. 38 м.
Вид битрейта : Постоянный
Битрейт : 224 Кбит/сек
Каналы : 2 канала
Расположение каналов : Front: L R
Частота : 48,0 КГц
Частота кадров : 31,250 кадров/сек (1536 spf)
Метод сжатия : С потерями
Размер потока : 159 Мбайт (5%)
Язык : French
Default : Нет
Forced : Нет

pb.wtf



Скачать Никаких проблем! через торрент http://s018.radikal.ru/i524/1704/d0/f09de8c24b61.jpg Скачать фильм Никаких проблем! через торрент бесплантно в хорошем качестве Описание: Фильм начинается необычно... с энергичной и долгой автопогони, в результате которой преследуемый и израненный врывается в ... 10 10 1
Info! Золотая раздача, скачанное не засчитывается.
Торрент: Зарегистрирован [2017-04-22 08:02] · скачан: 11 раз
Статус: √ проверено
Размер: 2.86 GB
Как cкачать? Как скачать Никаких проблем! через торрент | qTorrent

28-11-2019 20:33  

Отключить всю рекламу на сайте

06-10-2019 10:04 Никаких проблем! Скачать торрент  

Топик был перенесен из форума Фильмы до 2000 г. в форум Классика зарубежного кино


bober100pb.wtf



    Дорогой пользователь! Огромная просьба, поблагодарите релизера, оцените раздачу и оставьте свои комментарий, если Вы скачали Никаких проблем! через торрент бесплатно! Внесите свою лепту в развитие PiratBit!
    Комментировать посты могут только пользователи прошедшие не сложную регистрацию
    Показать сообщения:    

    Никаких проблем! через торрент
    Скачать бесплатно Никаких проблем!
    Никаких проблем! скачать торрент
    Никаких проблем! смотреть онлайн
    Cкачать фильм Никаких проблем! бесплатно
    Никаких проблем! скачать торрент в хорошем качестве
    Никаких проблем! смотреть онлайн бесплатно в хорошем качестве


    Вы не можете начинать темы
    Вы не можете отвечать на сообщения
    Вы не можете редактировать свои сообщения
    Вы не можете удалять свои сообщения
    Вы не можете голосовать в опросах
    Вы не можете прикреплять файлы к сообщениям
    Вы можете скачивать файлы