Всегда рабочее зеркало просто перед .vidak.icu напиши любое слово или цифру, Пример http://v0b.vidak.icu

>

7.4

iTunes

7.4

2 сезон

6.6

iTunes

1

7.4

2 сезон

7.2

iTunes

6.0

MVO

13

6.1

iTunes

8.3

Пиратка

30

ULTIMATE

pack

9.9

Лицензия

ВАЖНО

ИГРА 18+

pack

7.3

RePack

MK11

7.7

RePack

jed

7.8

RePack

fifa19

8.5

RePack

RDR2

RePack

NEED FOR SPEED™ PAYBACK

1 сезон

9 сезон

Бесстыжие 9 сезон

Все сериалы

все сериалы на PB.wtf

RePack

FAR CRY 5

Anonymous, доброй ночи, мы катастрофически не успеваем собрать деньги на оплату серверов, помогите нам пожалуйста 5,10,15р., для нас важна любая помощь . В качестве благодарности мы отключим Вам всю рекламу на сайте (укажите свой ник в строку Ваше имя)!

×
  
Magnet ссылка

36 часов / 36 Hours (Джордж Ситон) [1964, триллер, военный, BDRip 720p by msltel] AVO pb.wtf

36 часов через торрент pb.wtf

Размер: 4.28 GB | Добавлен: 4 года 8 мес. назад | Торрент скачан:4 раза
Смотреть онлайн 36 часов | Скачать    Ребята, помогите собрать деньги на оплату серверов!!!

22-04-2017 13:01 36 часов Скачать торрент  

Название: 36 часов
Оригинальное название: 36 Hours
Год выпуска: 1964
Страна: США
Жанр: триллер, военный
Продолжительность: 01:54:42
Перевод: авторский

Режиссёр: Джордж Ситон

В ролях: Джеймс Гарнер, Ева Мари Сэйнт, Род Тейлор, Вернер Петерс, Джон Баннер, Расселл Торсон, Алан Напье, Оскар Береги мл., Эд Гилберт, Зиг Руман

Описание: 1944 год. Немцы похищают в Лиссабоне американского майора Джефферсона Пайка. Им известно, что у него есть информация о предстоящей высадке американских войск. Чтобы разговорить его, они прибегают к необычной методике: накачивают его наркотиками и вывозят в Баварию в бутафорский американский госпиталь, где немецкий майор Гербер в американской форме пытается убедить его, что на дворе 1950 год, война давно закончилась, а он страдает амнезией. Гербер якобы занимается его лечением, а на деле надеется заслужить доверие Пайка, чтобы тот выложил ему всё, что знает...



Качество: BDRip 720p
Формат: MKV
Видео: MPEG-4 AVC, 4951 Kбит/с, 1280x534, 23,976 кадра/с
Аудио 1: русский, AC3, 192 kbps, 2 ch, 48 kHz [авторский, Вадим Назаров]
Аудио 2: английский, AC3, 192 kbps, 2 ch, 48 kHz [оригинал]
Субтитры: английские
Общее
Уникальный идентификатор : 206128946219760536011021307018939517674 (0x9B12FDB1B6FB9E57802427B22F68CAEA)
Полное имя : D:\Video\36 часов.1964.BDRip.720p by msltel.mkv
Формат : Matroska
Версия формата : Version 4 / Version 2
Размер файла : 4,28 Гбайт
Продолжительность : 1 ч. 54 м.
Общий поток : 5337 Кбит/сек
Название фильма : Rip by msltel
Дата кодирования : UTC 2017-04-22 10:08:07
Программа кодирования : mkvmerge v8.2.0 ('World of Adventure') 64bit
Библиотека кодирования : libebml v1.3.1 + libmatroska v1.4.2

Видео
Идентификатор : 1
Формат : AVC
Формат/Информация : Advanced Video Codec
Профиль формата : High@L4.1
Параметр CABAC формата : Да
Параметр ReFrames формата : 9 кадров
Идентификатор кодека : V_MPEG4/ISO/AVC
Продолжительность : 1 ч. 54 м.
Битрейт : 4951 Кбит/сек
Ширина : 1280 пикселей
Высота : 534 пикселя
Соотношение сторон : 2,40:1
Режим частоты кадров : Постоянный
Частота кадров : 23,976 (24000/1001) кадра/сек
Цветовое пространство : YUV
Субдискретизация насыщенности : 4:2:0
Битовая глубина : 8 бит
Тип развёртки : Прогрессивная
Бит/(Пиксели*Кадры) : 0.302
Размер потока : 3,97 Гбайт (93%)
Библиотека кодирования : x264 core 146 r2538 121396c
Настройки программы : cabac=1 / ref=9 / deblock=1:-3:-2 / analyse=0x3:0x113 / me=umh / subme=11 / psy=1 / psy_rd=1.00:0.15 / mixed_ref=1 / me_range=32 / chroma_me=1 / trellis=2 / 8x8dct=1 / cqm=0 / deadzone=21,11 / fast_pskip=0 / chroma_qp_offset=-3 / threads=6 / lookahead_threads=1 / sliced_threads=0 / nr=0 / decimate=1 / interlaced=0 / bluray_compat=0 / constrained_intra=0 / bframes=9 / b_pyramid=2 / b_adapt=2 / b_bias=0 / direct=1 / weightb=1 / open_gop=0 / weightp=2 / keyint=230 / keyint_min=23 / scenecut=40 / intra_refresh=0 / rc_lookahead=40 / rc=crf / mbtree=0 / crf=18.9 / qcomp=0.60 / qpmin=0 / qpmax=69 / qpstep=4 / vbv_maxrate=62500 / vbv_bufsize=78125 / crf_max=0.0 / nal_hrd=none / filler=0 / ip_ratio=1.40 / pb_ratio=1.30 / aq=1:1.00
Язык : English
Default : Да
Forced : Нет

Аудио #1
Идентификатор : 2
Формат : AC-3
Формат/Информация : Audio Coding 3
Параметр Endianness формата : Big
Идентификатор кодека : A_AC3
Продолжительность : 1 ч. 54 м.
Вид битрейта : Постоянный
Битрейт : 192 Кбит/сек
Каналы : 2 канала
Расположение каналов : Front: L R
Частота : 48,0 КГц
Частота кадров : 31,250 кадров/сек (1536 spf)
Битовая глубина : 16 бит
Метод сжатия : С потерями
Размер потока : 158 Мбайт (4%)
Заголовок : AVO (Вадим Назаров)
Язык : Russian
ServiceKind/String : Complete Main
Default : Да
Forced : Нет

Аудио #2
Идентификатор : 3
Формат : AC-3
Формат/Информация : Audio Coding 3
Параметр Endianness формата : Big
Идентификатор кодека : A_AC3
Продолжительность : 1 ч. 54 м.
Вид битрейта : Постоянный
Битрейт : 192 Кбит/сек
Каналы : 2 канала
Расположение каналов : Front: L R
Частота : 48,0 КГц
Частота кадров : 31,250 кадров/сек (1536 spf)
Битовая глубина : 16 бит
Метод сжатия : С потерями
Размер потока : 158 Мбайт (4%)
Заголовок : original
Язык : English
ServiceKind/String : Complete Main
Default : Нет
Forced : Нет

Текст
Идентификатор : 4
Формат : UTF-8
Идентификатор кодека : S_TEXT/UTF8
Идентификатор кодека/Информация : UTF-8 Plain Text
Продолжительность : 1 ч. 53 м.
Битрейт : 60 бит/сек
ElementCount : 1490
Размер потока : 50,0 Кбайт (0%)
Заголовок : английские
Язык : English
Default : Нет
Forced : Нет
pb.wtf



Скачать 36 часов через торрент http://hostpic.gq/img/2017-04/22/t382i6mzsgwr1qrxq7pykztxe.png Скачать, смотреть онлайн 36 часов бесплантно в хорошем качестве Описание: 1944 год. Немцы похищают в Лиссабоне американского майора Джефферсона Пайка. Им известно, что у него есть информация о ... 9 10 2
Info! Золотая раздача, скачанное не засчитывается.
Торрент: Зарегистрирован [2017-04-22 13:01] · скачан: 4 раз
Статус: √ проверено
Размер: 4.28 GB
Как cкачать? Как скачать 36 часов через торрент | UTorrent

% Раздел Тема Автор DL S | L
Фильмы с авторской озвучкой [ 11.77 GB ] 36 часов / 36 Hours [1964 военный BDRip 1080p by msltel] AVO msltel Скачать
1 | 0

28-11-2019 20:33  

Отключить всю рекламу на сайте

    Дорогой пользователь! Огромная просьба, поблагодарите релизера, оцените раздачу и оставьте свои комментарий, если Вы скачали 36 часов через торрент бесплатно!
    Комментировать посты могут только пользователи прошедшие не сложную регистрацию
    Показать сообщения:    

    36 часов через торрент
    Скачать бесплатно 36 часов
    36 часов скачать торрент
    36 часов смотреть онлайн
    Cкачать фильм 36 часов бесплатно
    36 часов скачать торрент в хорошем качестве
    36 часов смотреть онлайн бесплатно в хорошем качестве


    Вы не можете начинать темы
    Вы не можете отвечать на сообщения
    Вы не можете редактировать свои сообщения
    Вы не можете удалять свои сообщения
    Вы не можете голосовать в опросах
    Вы не можете прикреплять файлы к сообщениям
    Вы можете скачивать файлы