Ссылка на приватное зеркало нашего сайта всего за 1$. Внимание количество ограничено!!!

2 сезон

iTunes

1 сезон

1

iTunes

iTunes

iTunes

1 сезон

RePack

30

ИГРА 18+

pack

ВАЖНО

!!Акция!!

Alien_RageХит недели

RePack

MK11
pack

Забери бонус

RePack

jed

!!Акция!!

Alien_Rage

RePack

fifa19

RePack

Assassins Creed: Odyssey

RePack

NEED FOR SPEED™ PAYBACK

4 сезон

9 сезон

Бесстыжие 9 сезон

Все сериалы

все сериалы на PB.wtf

RePack

FAR CRY 5
  

Дом у последнего фонаря / Серия 1-4 из 4 (Николай Барышников) [2017 г., Детектив, Криминал, SATRip] pb.wtf

Дом у последнего фонаря через торрент pb.wtf

Размер: 2.35 GB | Добавлен: 3 года 6 мес. назад | Торрент скачан:69 раз
Скачать  

22-04-2017 14:21 Дом у последнего фонаря Скачать торрент  

Дом у последнего фонаря / Серия 1-4 из 4
Год выпуска: 2017
Страна: Россия
Жанр: Детектив, Криминал
Продолжительность: 4 x ~ 00:45:00
Субтитры: нет

Режиссер: Николай Барышников

В ролях: Елена Великанова, Дмитрий Бедерин, Любовь Германова, Валерий Сторожик, Максим Щёголев, Сергей Подольный, Александр Константинов, Екатерина Кульчицкая, Юлия Юрченко

Описание: Саша Корзухина, талантливый реставратор, неожиданно оказывается подозреваемой. Убит знаменитый антиквар Лыгин. А Саша была у него прошлым вечером. По его просьбе она приехала к нему на дачу, но Лыгина там не нашла. А утром, вернувшись, обнаружила его труп. Через несколько дней Саша вновь оказывается на месте преступления. Убит коллекционер, и опять у Саши была назначена с ним встреча. Следователь Греков серьезно подозревает Сашу. И ей ничего не остается, как самой взяться за поиски преступника и попытаться разобраться, что же ищет убийца, который всегда оказывается на шаг впереди

Качество: SATRip
Формат: AVI
Видео кодек: XviD
Аудио кодек: MP3
Видео: 720x400 (1.80:1), 25 fps, XviD ~1800 kbps
Аудио#1: 48 kHz, MPEG Layer 3, 2 ch, ~128.00 kbps avg




General
Complete name : H:\релизы.торрентфайл\Dom.u.poslednego.fonarja.SATRip.[www.riperam.org]\Dom.u.poslednego.fonarja.01.SATRip.[www.riperam.org].avi
Format : AVI
Format/Info : Audio Video Interleave
File size : 607 MiB
Duration : 43mn 49s
Overall bit rate : 1 938 Kbps
Writing application : VirtualDubMod 1.5.10.3 | www.virtualdub-fr.org || (build 2550/release)
Writing library : VirtualDubMod build 2550/release

Video
ID : 0
Format : MPEG-4 Visual
Format profile : Advanced Simple@L5
Format settings, BVOP : 2
Format settings, QPel : No
Format settings, GMC : No warppoints
Format settings, Matrix : Default (H.263)
Codec ID : XVID
Codec ID/Hint : XviD
Duration : 43mn 49s
Bit rate : 1 800 Kbps
Width : 720 pixels
Height : 400 pixels
Display aspect ratio : 16:9
Frame rate : 25.000 fps
Color space : YUV
Chroma subsampling : 4:2:0
Bit depth : 8 bits
Scan type : Progressive
Compression mode : Lossy
Bits/(Pixel*Frame) : 0.250
Stream size : 564 MiB (93%)
Writing library : XviD 1.2.1 (UTC 2008-12-04)

Audio
ID : 1
Format : MPEG Audio
Format version : Version 1
Format profile : Layer 3
Mode : Joint stereo
Mode extension : MS Stereo
Codec ID : 55
Codec ID/Hint : MP3
Duration : 43mn 49s
Bit rate mode : Constant
Bit rate : 128 Kbps
Channel(s) : 2 channels
Sampling rate : 48.0 KHz
Compression mode : Lossy
Stream size : 40.1 MiB (7%)
Alignment : Aligned on interleaves
Interleave, duration : 40 ms (1.00 video frame)
Interleave, preload duration : 504 ms
Writing library : LAME3.99r
Encoding settings : -m j -V 4 -q 9 -lowpass 17 -b 128

pb.wtf



Скачать Дом у последнего фонаря через торрент http://pic1.kartinco.top/images/11/u3hlt.jpg Скачать фильм Дом у последнего фонаря через торрент бесплантно в хорошем качестве Описание: Саша Корзухина, талантливый реставратор, неожиданно оказывается подозреваемой. Убит знаменитый антиквар Лыгин. А Саша была у него ... 10 10 5
Торрент: Зарегистрирован [2017-04-22 14:21] · скачан: 69 раз
Статус: √ проверено
Размер: 2.35 GB
Как cкачать? Как скачать Дом у последнего фонаря через торрент | qTorrent

% Раздел Тема Автор DL S | L
Наши сериалы [ 2.31 GB ] Дом у последнего фонаря / 1-4 серии из 4 [2017 экранизация WEB-DLRip] bober100 Скачать
1 | 0
Наши сериалы [ 2.1 GB ] Дом у последнего фонаря / Серии: 1-4 из 4 [2017 экранизация SATRip-AVC] aleksan55 Скачать
1 | 0

28-11-2019 20:33  

Отключить всю рекламу на сайте

    Дорогой пользователь! Огромная просьба, поблагодарите релизера, оцените раздачу и оставьте свои комментарий, если Вы скачали Дом у последнего фонаря через торрент бесплатно! Внесите свою лепту в развитие PiratBit!
    Комментировать посты могут только пользователи прошедшие не сложную регистрацию
    Показать сообщения:    

    Дом у последнего фонаря через торрент
    Скачать бесплатно Дом у последнего фонаря
    Дом у последнего фонаря скачать торрент
    Дом у последнего фонаря смотреть онлайн
    Cкачать фильм Дом у последнего фонаря бесплатно
    Дом у последнего фонаря скачать торрент в хорошем качестве
    Дом у последнего фонаря смотреть онлайн бесплатно в хорошем качестве


    Вы не можете начинать темы
    Вы не можете отвечать на сообщения
    Вы не можете редактировать свои сообщения
    Вы не можете удалять свои сообщения
    Вы не можете голосовать в опросах
    Вы не можете прикреплять файлы к сообщениям
    Вы можете скачивать файлы