Ссылка на приватное зеркало нашего сайта всего за 1$. Внимание количество ограничено!!!

2 сезон

iTunes

1 сезон

1

2 сезон

2 сезон

iTunes

1 сезон

RePack

30

Новинка

ВАЖНО

ИГРА 18+

pack

RePack

MK11
pack

Забери бонус

RePack

jed

!!Акция!!

Alien_Rage

RePack

fifa19

RePack

Assassins Creed: Odyssey

RePack

NEED FOR SPEED™ PAYBACK

4 сезон

9 сезон

Бесстыжие 9 сезон

Все сериалы

все сериалы на PB.wtf

RePack

FAR CRY 5
  

Волшебники / The Magicians / 2 сезон / Серии 1-13 из 13 (Скотт Смит, Майк Кэхилл, Ян Элиасберг) [2017, ужасы, фэнтези, драма, WEB-DLRip] MVO [LostFilm] pb.wtf

Волшебники через торрент pb.wtf

Раздают: 1 [ 0 KB/s ]
Размер: 6.99 GB | Добавлен: 3 года 7 мес. назад | Торрент скачан:43 раза
Скачать  

22-04-2017 19:42 Волшебники Скачать торрент  

Волшебники / The MagiciansГод выпуска: 2017
Страна: США
Жанр: ужасы, фэнтези, драма
Всего серий: 13
Продолжительность: 13 х ~00:45:00
Перевод: Профессиональный многоголосый -
Субтитры: отсутствуют

Режиссер: Скотт Смит, Майк Кэхилл, Ян Элиасберг

rating

В ролях:

Эсме Бьянко, Стелла Маив, Джейсон Ральф, Майкл Кэссиди, Саммер Бишил, Дэвид Колл, Рик Уорси, Темби Лок, Арджун Гупта, Хейл Эйплмен
Описание:

В один прекрасный момент несколько 20-летних подростков удивительным образом оказываются в университете магии Брэйкбиллз, находящемся в Нью-Йорке. Парни делают необычное открытие, вносящее кардинальные перемены в их жизнь: как оказалось, умопомрачительный мир, о котором они так часто читали в детские годы, действительно есть. Не говоря уже о том, что, у всех у них есть собственные волшебные возможности. Но скоро обнаруживается, что жители данной скрытой от постороннего взгляда местности представляют собой гигантскую опасность для всего населения Земли.
Качество: WEB-DLRip
Формат: AVI
Видео кодек: XviD
Аудио кодек: MP3
Видео: 720x400 (1.80:1), 23.976 fps, XviD build 50 ~1400 kbps avg, 0.202 bit/pixel
Аудио#1: RUS: 48 kHz, MPEG Layer 3, 2 ch, ~128.00 kbps avg (LostFilm)
Аудио#2: ENG: 48 kHz, MPEG Layer 3, 2 ch, ~128.00 kbps avg



скриншот   скриншот   скриншот   скриншот   скриншот  

Общее
Полное имя : D:\Magicians (Season 02) LostFilm\The.Magicians.US.S02E01.WEB-DLRip.Rus.Eng.LostFilm.avi
Формат : AVI
Формат/Информация : Audio Video Interleave
Размер файла : 551 Мбайт
Продолжительность : 46 м. 2 с.
Общий поток : 1672 Кбит/сек
Программа кодирования : VirtualDubMod 1.5.10.3 | www.virtualdub-fr.org || (build 2550/release)
Библиотека кодирования : VirtualDubMod build 2550/release

Видео
Идентификатор : 0
Формат : MPEG-4 Visual
Профиль формата : Advanced Simple@L5
Параметр BVOP формата : 1
Параметр QPel формата : Нет
Параметр GMC формата : Без точки перехода
Параметр матрицы формата : Default (MPEG)
Идентификатор кодека : XVID
Идентификатор кодека/Подсказка : XviD
Продолжительность : 46 м. 2 с.
Битрейт : 1402 Кбит/сек
Ширина : 720 пикселей
Высота : 400 пикселей
Соотношение сторон : 16:9
Частота кадров : 23,976 (23976/1000) кадра/сек
Цветовое пространство : YUV
Субдискретизация насыщенности : 4:2:0
Битовая глубина : 8 бит
Тип развёртки : Прогрессивная
Метод сжатия : С потерями
Бит/(Пиксели*Кадры) : 0.203
Размер потока : 462 Мбайт (84%)
Библиотека кодирования : XviD 73

Аудио #1
Идентификатор : 1
Формат : MPEG Audio
Версия формата : Version 1
Профиль формата : Layer 3
Режим : Joint stereo
Расширение режима : MS Stereo
Идентификатор кодека : 55
Идентификатор кодека/Подсказка : MP3
Продолжительность : 46 м. 2 с.
Вид битрейта : Постоянный
Битрейт : 128 Кбит/сек
Каналы : 2 канала
Частота : 48,0 КГц
Метод сжатия : С потерями
Размер потока : 42,1 Мбайт (8%)
Выравнивание : Соединение по промежуткам
Продолжительность промежутка : 42 мс. (1,00 видеокадр)
Время предзагрузки промежутка : 504 мс.

Аудио #2
Идентификатор : 2
Формат : MPEG Audio
Версия формата : Version 1
Профиль формата : Layer 3
Режим : Joint stereo
Расширение режима : MS Stereo
Идентификатор кодека : 55
Идентификатор кодека/Подсказка : MP3
Продолжительность : 46 м. 2 с.
Вид битрейта : Постоянный
Битрейт : 128 Кбит/сек
Каналы : 2 канала
Частота : 48,0 КГц
Метод сжатия : С потерями
Размер потока : 42,2 Мбайт (8%)
Выравнивание : Соединение по промежуткам
Продолжительность промежутка : 42 мс. (1,00 видеокадр)
Время предзагрузки промежутка : 504 мс.



pb.wtf



Скачать Волшебники через торрент http://s018.radikal.ru/i511/1704/36/5eaa57bcbc81.png Скачать фильм Волшебники через торрент бесплантно в хорошем качестве Описание: В один прекрасный момент несколько 20-летних подростков удивительным образом оказываются в университете магии Брэйкбиллз, ... 9.7 10 7
Торрент: Зарегистрирован [2017-04-22 19:42] · скачан: 43 раз
Статус: √ проверено
Размер: 6.99 GB
Как cкачать? Как скачать Волшебники через торрент | qTorrent

% Раздел Тема Автор DL S | L
Зарубежные сериалы [ 19.02 GB ] Волшебники / The Magicians / Сезон: 2 / Серии: 1-13 из 13 [2017 WEB-DL 720p] MVO [Jaskier] bober100 Скачать
1 | 0
Зарубежные сериалы [ 6.99 GB ] Волшебники / The Magicians / Сезон: 2 / Серии: 1-13 из 13 [2017 WEB-DLRip] MVO [Jaskier] bober100 Скачать
2 | 0
Зарубежные сериалы [ 9.41 GB ] Волшебники / The Magicians / Сезон: 2 / Серии 1-13 из 13 [2017 WEB-DLRip-AVC] MVO [LostFilm] GEKADOL Скачать
1 | 1
Зарубежные сериалы [ 23.76 GB ] Волшебники / The Magicians / Сезон 2 / Серии 1-13 из 13 [2017 WEB-DLRip 1080p многоголосый LostFilm] Vladislav@Pskov Скачать
1 | 0

28-11-2019 20:33  

Отключить всю рекламу на сайте

    Дорогой пользователь! Огромная просьба, поблагодарите релизера, оцените раздачу и оставьте свои комментарий, если Вы скачали Волшебники через торрент бесплатно! Внесите свою лепту в развитие PiratBit!
    Комментировать посты могут только пользователи прошедшие не сложную регистрацию
    Показать сообщения:    

    Волшебники через торрент
    Скачать бесплатно Волшебники
    Волшебники скачать торрент
    Волшебники смотреть онлайн
    Cкачать фильм Волшебники бесплатно
    Волшебники скачать торрент в хорошем качестве
    Волшебники смотреть онлайн бесплатно в хорошем качестве


    Вы не можете начинать темы
    Вы не можете отвечать на сообщения
    Вы не можете редактировать свои сообщения
    Вы не можете удалять свои сообщения
    Вы не можете голосовать в опросах
    Вы не можете прикреплять файлы к сообщениям
    Вы можете скачивать файлы