Ссылка на приватное зеркало нашего сайта всего за 1$. Внимание количество ограничено!!!

2 сезон

iTunes

1 сезон

1

2 сезон

2 сезон

iTunes

1 сезон

RePack

30

Ultimate

ВАЖНО

ИГРА 18+

pack

RePack

MK11
pack

Забери бонус

RePack

jed

!!Акция!!

Alien_Rage

RePack

fifa19

RePack

Assassins Creed: Odyssey

RePack

NEED FOR SPEED™ PAYBACK

4 сезон

9 сезон

Бесстыжие 9 сезон

Все сериалы

все сериалы на PB.wtf

RePack

FAR CRY 5
  

Училки / Teachers / Сезон: 2 / Серии 1-10 из 10 (Джей Карас / Jay Karas, Пэймэн Бенц / Payman Benz, Майкл Блиден / Michael Blieden) [2017, США, комедия, WEB-DL 1080p] MVO [BaibaKo] pb.wtf

Училки через торрент pb.wtf

Размер: 9.12 GB | Добавлен: 3 года 6 мес. назад | Торрент скачан:16 раз
Скачать  

23-04-2017 03:42 Училки Скачать торрент  

Училки / Teachers


  • Год выпуска: 2017
  • Страна: США
  • Жанр: комедия
  • Продолжительность: 00:22:04 (Серия)
  • Перевод: Профессиональный многоголосый [BaibaKo]
  • Режиссер: Джей Карас / Jay Karas, Пэймэн Бенц / Payman Benz, Майкл Блиден / Michael Blieden
  • В ролях:

    Кэйтлин Барлоу (Cecilia Cannon), Кэти Коллотон (Chelsea Snap), Кейт Фридман (AJ Feldman), Кейт Ламберт (Caroline Watson), Кэти О’Брайэн (Mary Louise Bennigan), Кэти Томас (Deb Adler), Тим Бэгли (Principal Pearson), Райан Калтагорин (Hot Dad), Trevor Larcom (Blake), Ричард Т. Джонс (Frank Humphrey), Джей Мартел (Mr. Spinnoli), Закари Артур (David)


  • Сюжет телесериала основан на одноименном веб-сериале творческой группы The Katydids, шесть участниц которой стали авторами сценария и одновременно исполнительницами главных ролей в телепроекте TV Land. Ученики младших классов - словно мягкая глина, из которой можно вылепить что угодно. Шесть учительниц начальной школы пытаются быть достойными наставницами для юных умов и помочь детям найти верный путь в жизни, однако в собственной жизни учительниц далеко не все в порядке.
  • Рейтинг:



  • Качество: WEB-DL 1080p
  • Формат: :MKV
  • Видео кодек: AVC
  • Аудио кодек: AC3
  • Видео: 1916x1076 (16:9), 5209 kbps, 23,976 fps, 0,105 bpp
  • Аудио №1: русский / 2.0 / 48 kHz / 384 kbps / 16 bit |[BaibaKo]|
  • Аудио №2: английский / 2.0 / 48 kHz / 384 kbps / 16 bit
  • Релиз от: GEKADOL

    Внимание! Раздача ведётся путём добавления новых серий; при каждом добавлении создаётся новый торрент. Чтобы начать докачку новой серии, пользователям необходимо сделать следующее:
    (1) остановить скачивание,
    (2) удалить старый торрент у себя из клиента (старые серии удалять не надо),
    (3) скачать новый торрент и запустить его у себя в клиенте вместо старого, при этом указать клиенту путь в старую папку куда и должно происходить скачивание новых серий.
    Ваш клиент при этом должен произвести хеширование (проверку) старой папки (если не производит сам - помогите ему сделать это), и будет докачивать только те серии которых у вас ещё нет. Старые серии при этом не удаляются, а продолжают раздаваться!
    Eсли вы уже удалили старые серии, то предотвратить повторную закачку старых серий можно, отжав галочку в соответствующих местах при запуске нового торрента. По возможности, желательно не удалять старые серии как можно дольше чтобы релизёр не столько продолжал раздавать старые серии, а смог сконцентрироваться на новых.

    General
    Unique ID : 228469165709537933175597694007728829652 (0xABE18F8E0706C5F69120792ED28A74D4)
    Complete name : K:\Училки (Teachers) Сезон 2\Teachers.s02e01.HD1080p.WEB-DL.Rus.Eng.BaibaKo.tv.mkv
    Format : Matroska
    Format version : Version 4 / Version 2
    File size : 944 MiB
    Duration : 22 min
    Overall bit rate : 5 979 kb/s
    Encoded date : UTC 2017-04-23 04:33:41
    Writing application : mkvmerge v10.0.0 ('To Drown In You') 64bit
    Writing library : libebml v1.3.4 + libmatroska v1.4.5

    Video
    ID : 1
    Format : AVC
    Format/Info : Advanced Video Codec
    Format profile : High@L4
    Format settings, CABAC : Yes
    Format settings, ReFrames : 4 frames
    Codec ID : V_MPEG4/ISO/AVC
    Duration : 22 min
    Bit rate : 5 209 kb/s
    Width : 1 916 pixels
    Height : 1 076 pixels
    Display aspect ratio : 16:9
    Original display aspect ratio : 16:9
    Frame rate mode : Constant
    Frame rate : 23.976 (23976/1000) FPS
    Color space : YUV
    Chroma subsampling : 4:2:0
    Bit depth : 8 bits
    Scan type : Progressive
    Bits/(Pixel*Frame) : 0.105
    Stream size : 822 MiB (87%)
    Default : No
    Forced : No
    Color range : Limited
    Color primaries : BT.709
    Transfer characteristics : BT.709
    Matrix coefficients : BT.709

    Audio #1
    ID : 2
    Format : AC-3
    Format/Info : Audio Coding 3
    Mode extension : CM (complete main)
    Format settings, Endianness : Big
    Codec ID : A_AC3
    Duration : 22 min
    Bit rate mode : Constant
    Bit rate : 384 kb/s
    Channel(s) : 2 channels
    Channel positions : Front: L R
    Sampling rate : 48.0 kHz
    Frame rate : 31.250 FPS (1536 spf)
    Compression mode : Lossy
    Delay relative to video : 12 ms
    Stream size : 60.6 MiB (6%)
    Language : Russian
    Default : Yes
    Forced : No

    Audio #2
    ID : 3
    Format : AC-3
    Format/Info : Audio Coding 3
    Mode extension : CM (complete main)
    Format settings, Endianness : Big
    Codec ID : A_AC3
    Duration : 22 min
    Bit rate mode : Constant
    Bit rate : 384 kb/s
    Channel(s) : 2 channels
    Channel positions : Front: L R
    Sampling rate : 48.0 kHz
    Frame rate : 31.250 FPS (1536 spf)
    Compression mode : Lossy
    Stream size : 60.6 MiB (6%)
    Language : English
    Default : No
    Forced : No



    Скриншоты:
    скриншот   скриншот   скриншот   скриншот   скриншот   скриншот   скриншот  
    скриншот  

    Раздача ведётся путём добавления новых серий. Добавлена 10 серия (29.04.2017).Просьба перекачать торрент файл.

    pb.wtf



  • Скачать Училки через торрент http://i89.fastpic.ru/big/2017/0423/a4/27f9b09e16e0d83247a83370fafb46a4.jpg Скачать фильм Училки через торрент бесплантно в хорошем качестве qw.png Сюжет телесериала основан на одноименном веб-сериале творческой группы The Katydids, шесть участниц которой стали авторами ... 10 10 1
    Info! Золотая раздача, скачанное не засчитывается.
    Торрент: Зарегистрирован [2017-04-29 02:51] · скачан: 16 раз
    Статус: √ проверено
    Размер: 9.12 GB
    Как cкачать? Как скачать Училки через торрент | qTorrent

    28-11-2019 20:33  

    Отключить всю рекламу на сайте

    29-04-2017 15:16 Училки Скачать торрент  

    Дайте скорости пожалуйста 😢😢😢😢😢😢😢pb.wtf



    07-07-2017 12:31 Училки Скачать торрент  

    тут раздающие появляются вообще???pb.wtf



      Дорогой пользователь! Огромная просьба, поблагодарите релизера, оцените раздачу и оставьте свои комментарий, если Вы скачали Училки через торрент бесплатно! Внесите свою лепту в развитие PiratBit!
      Комментировать посты могут только пользователи прошедшие не сложную регистрацию
      Показать сообщения:    

      Училки через торрент
      Скачать бесплатно Училки
      Училки скачать торрент
      Училки смотреть онлайн
      Cкачать фильм Училки бесплатно
      Училки скачать торрент в хорошем качестве
      Училки смотреть онлайн бесплатно в хорошем качестве


      Вы не можете начинать темы
      Вы не можете отвечать на сообщения
      Вы не можете редактировать свои сообщения
      Вы не можете удалять свои сообщения
      Вы не можете голосовать в опросах
      Вы не можете прикреплять файлы к сообщениям
      Вы можете скачивать файлы