Ссылка на приватное зеркало нашего сайта всего за 1$. Внимание количество ограничено!!!

2 сезон

iTunes

1 сезон

1

iTunes

iTunes

iTunes

1 сезон

RePack

30

ИГРА 18+

pack

ВАЖНО

!!Акция!!

Alien_RageХит недели

RePack

MK11
pack

Забери бонус

RePack

jed

!!Акция!!

Alien_Rage

RePack

fifa19

RePack

Assassins Creed: Odyssey

RePack

NEED FOR SPEED™ PAYBACK

4 сезон

9 сезон

Бесстыжие 9 сезон

Все сериалы

все сериалы на PB.wtf

RePack

FAR CRY 5
  

Противостояние / 1-4 серии из 4 (Роман Бровко) [2017, мелодрама, WEB-DLRip] pb.wtf

Противостояние через торрент pb.wtf

Размер: 2.35 GB | Добавлен: 3 года 6 мес. назад | Торрент скачан:72 раза
Скачать  

23-04-2017 05:22 Противостояние Скачать торрент  

Противостояние
Год выпуска: 2017
Страна: Россия, Украина
Жанр: мелодрама
Продолжительность: 4 x ~ 00:50:00
Перевод: Не требуется (русский)
Субтитры: отсутствуют

Режиссер: Роман Бровко



В ролях:

Фатима Горбенко, Илья Алексеев, Виктория Малекторович, Александр Попов (IV), Евгений Лебедин, Игорь Петрусенко

Описание:

Счастливая мать и жена, Ирина Кольцова, в одночасье теряет и мужа, и сына. Ее муж, глава фармацевтической компании Андрей Кольцов, погибает в ДТП. А маленького Мишу забирает свекровь Жанна Кольцова, властная женщина, так и не принявшая Ирину в семью. Ирина пытается вернуть сына, но Жанна устраивает ей хитроумную западню и вешает на невестку обвинение в убийстве. Ирину сажают в колонию. Выйдя по УДО, она пытается доказать свою невиновность и вернуть сына. Но сделать это не так просто – на первый взгляд, в западне свекрови нет изъянов.

Качество: WEB-DLRip
Формат: AVI
Видео кодек: XviD
Аудио кодек: AC3

Видео: 720x400 (1.80:1), 25 fps, XviD build 73 ~1524 kbps avg, 0.212 bit/pixel
Аудио#1: 48 kHz, AC3 Dolby Digital, 2/0 (L,R) ch, ~192 kbps
скриншот   скриншот   скриншот   скриншот  

Общее
Полное имя : D:\Protivostojanie.2017.WEB-DLRip.Files-x\01.Protivostojanie.2017.WEB-DLRip.Files-x.avi
Формат : AVI
Формат/Информация : Audio Video Interleave
Размер файла : 602 Мбайт
Продолжительность : 48 м. 46 с.
Общий поток : 1726 Кбит/сек
Программа кодирования : VirtualDubMod 1.5.10.3 | www.virtualdub-fr.org || (build 2550/release)
Библиотека кодирования : VirtualDubMod build 2550/release

Видео
Идентификатор : 0
Формат : MPEG-4 Visual
Профиль формата : Advanced Simple@L5
Параметр BVOP формата : 1
Параметр QPel формата : Нет
Параметр GMC формата : Без точки перехода
Параметр матрицы формата : Выборочная
Идентификатор кодека : XVID
Идентификатор кодека/Подсказка : XviD
Продолжительность : 48 м. 46 с.
Битрейт : 1524 Кбит/сек
Ширина : 720 пикселей
Высота : 400 пикселей
Соотношение сторон : 16:9
Частота кадров : 25,000 кадров/сек
Цветовое пространство : YUV
Субдискретизация насыщенности : 4:2:0
Битовая глубина : 8 бит
Тип развёртки : Прогрессивная
Метод сжатия : С потерями
Бит/(Пиксели*Кадры) : 0.212
Размер потока : 532 Мбайт (88%)
Библиотека кодирования : XviD 73

Аудио
Идентификатор : 1
Формат : AC-3
Формат/Информация : Audio Coding 3
Расширение режима : CM (complete main)
Параметр Endianness формата : Big
Идентификатор кодека : 2000
Продолжительность : 48 м. 46 с.
Вид битрейта : Постоянный
Битрейт : 192 Кбит/сек
Каналы : 2 канала
Расположение каналов : Front: L R
Частота : 48,0 КГц
Частота кадров : 31,250 кадров/сек (1536 spf)
Метод сжатия : С потерями
Размер потока : 67,0 Мбайт (11%)
Выравнивание : Разделение по промежуткам
Продолжительность промежутка : 40 мс. (1,00 видеокадр)
Время предзагрузки промежутка : 500 мс.

pb.wtf



Скачать Противостояние через торрент http://rudb.org/img/2017_04/i58fc2f1825794.jpg Скачать фильм Противостояние через торрент бесплантно в хорошем качестве Описание: Счастливая мать и жена, Ирина Кольцова, в одночасье теряет и мужа, и сына. Ее муж, глава фармацевтической компании Андрей ... 8.5 10 6
Торрент: Зарегистрирован [2017-04-23 05:22] · скачан: 72 раз
Статус: √ проверено
Размер: 2.35 GB
Как cкачать? Как скачать Противостояние через торрент | qTorrent

% Раздел Тема Автор DL S | L
Наши сериалы [ 2.17 GB ] Противостояние / Серии: 1-4 из 4 [2017 Мело HDTVRip] bober100 Скачать
1 | 0
Наши сериалы [ 2.23 GB ] Противостояние / Серии: 1-4 из 4 [2017 SATRip-AVC] aleksan55 Скачать
1 | 0

28-11-2019 20:33  

Отключить всю рекламу на сайте

    Дорогой пользователь! Огромная просьба, поблагодарите релизера, оцените раздачу и оставьте свои комментарий, если Вы скачали Противостояние через торрент бесплатно! Внесите свою лепту в развитие PiratBit!
    Комментировать посты могут только пользователи прошедшие не сложную регистрацию
    Показать сообщения:    

    Противостояние через торрент
    Скачать бесплатно Противостояние
    Противостояние скачать торрент
    Противостояние смотреть онлайн
    Cкачать фильм Противостояние бесплатно
    Противостояние скачать торрент в хорошем качестве
    Противостояние смотреть онлайн бесплатно в хорошем качестве


    Вы не можете начинать темы
    Вы не можете отвечать на сообщения
    Вы не можете редактировать свои сообщения
    Вы не можете удалять свои сообщения
    Вы не можете голосовать в опросах
    Вы не можете прикреплять файлы к сообщениям
    Вы можете скачивать файлы