Ссылка на приватное зеркало нашего сайта всего за 1$. Внимание количество ограничено!!!

2 сезон

iTunes

1 сезон

1

2 сезон

2 сезон

iTunes

1 сезон

RePack

30

Ultimate

ВАЖНО

ИГРА 18+

pack

RePack

MK11
pack

Забери бонус

RePack

jed

!!Акция!!

Alien_Rage

RePack

fifa19

RePack

Assassins Creed: Odyssey

RePack

NEED FOR SPEED™ PAYBACK

4 сезон

9 сезон

Бесстыжие 9 сезон

Все сериалы

все сериалы на PB.wtf

RePack

FAR CRY 5
  

Босх / Bosch / Сезон: 3 / Серии 1-10 из 10 (Джим МакКэй) [2017, триллер, детектив, WEBRip] [DVO] (HamsterStudio) pb.wtf

Босх через торрент pb.wtf

Размер: 4.47 GB | Добавлен: 3 года 6 мес. назад | Торрент скачан:58 раз
Скачать  

23-04-2017 12:22 Босх Скачать торрент  


◈ Босх ◈

Информация о фильме:
✦ Название: Босх
✦ Оригинальное название: Bosch
✦ Год выхода: 2017
✦ Жанр: триллер, детектив
✦ Страна: США
✦ Продолжительность: 1x ~ 00:50:00
✦ Перевод: Любительский (двухголосый) (HamsterStudio)
✦ Субтитры: нет

✦ Режиссер: Джим МакКэй

✦ В ролях: Титус Уэлливер, Джэми Гектор, Эми Акино, Эми Прайс-Фрэнсис, Энни Вершинг, Скотт Уилсон, Лэнс Реддик, Алан Розенберг, Валери Крус, Абрахам Бенруби

Описание фильма: Сериал основан на бестселлере Майкла Коннели о детективе убойного отдела Лос Анджелеса Гарри Босхе, который ведет расследование убийства 13-ти летнего мальчика, в то время как сам обвиняется в убийстве серийного маньяка.


Информация о файле:

✦ Качество: WEBRip
✦ Формат: AVI
✦ Кодек: XvID
✦ Видео: 720x400 (1.80:1), XviD ~1076 kbps, 23.976 fps
✦Аудио: 48 kHz, MP3, 2 ch, ~128.00 kbps
General
Complete name : E:\Босх (Season 03 ) HamsterStudio\Bosch.S03E01.WEBRip.HamsterStudio.avi
Format : AVI
Format/Info : Audio Video Interleave
File size : 456 MiB
Duration : 52mn 36s
Overall bit rate : 1 213 Kbps
Writing application : VirtualDubMod 1.5.10.2 (build 2540/release)
Writing library : VirtualDubMod build 2540/release

Video
ID : 0
Format : MPEG-4 Visual
Format profile : Advanced Simple@L5
Format settings, BVOP : 2
Format settings, QPel : No
Format settings, GMC : No warppoints
Format settings, Matrix : Default (H.263)
Muxing mode : Packed bitstream
Codec ID : XVID
Codec ID/Hint : XviD
Duration : 52mn 36s
Bit rate : 1 076 Kbps
Width : 720 pixels
Height : 400 pixels
Display aspect ratio : 16:9
Frame rate : 23.976 fps
Color space : YUV
Chroma subsampling : 4:2:0
Bit depth : 8 bits
Scan type : Progressive
Compression mode : Lossy
Bits/(Pixel*Frame) : 0.156
Stream size : 405 MiB (89%)
Writing library : XviD 67

Audio
ID : 1
Format : MPEG Audio
Format version : Version 1
Format profile : Layer 3
Mode : Joint stereo
Mode extension : MS Stereo
Codec ID : 55
Codec ID/Hint : MP3
Duration : 52mn 36s
Bit rate mode : Constant
Bit rate : 128 Kbps
Channel(s) : 2 channels
Sampling rate : 48.0 KHz
Compression mode : Lossy
Stream size : 48.2 MiB (11%)
Alignment : Aligned on interleaves
Interleave, duration : 42 ms (1.00 video frame)
Interleave, preload duration : 504 ms
Внимание! Раздача ведётся путём добавления новых серий; при каждом добавлении создаётся новый торрент. Чтобы начать докачку новой серии, пользователям необходимо сделать следующее:
(1) остановить скачивание,
(2) удалить старый торрент у себя из клиента (старые серии удалять не надо),
(3) скачать новый торрент и запустить его у себя в клиенте вместо старого, при этом указать клиенту путь в старую папку куда и должно происходить скачивание новых серий.
Ваш клиент при этом должен произвести хеширование (проверку) старой папки (если не производит сам - помогите ему сделать это), и будет докачивать только те серии которых у вас ещё нет. Старые серии при этом не удаляются, а продолжают раздаваться!
Eсли вы уже удалили старые серии, то предотвратить повторную закачку старых серий можно, отжав галочку в соответствующих местах при запуске нового торрента. По возможности, желательно не удалять старые серии как можно дольше чтобы релизёр не столько продолжал раздавать старые серии, а смог сконцентрироваться на новых.
pb.wtf



Скачать Босх через торрент http://i89.fastpic.ru/big/2017/0423/22/dafc66cad4afae1c8099b730597d4222.jpg Скачать фильм Босх через торрент бесплантно в хорошем качестве Описание фильма: Сериал основан на бестселлере Майкла Коннели о детективе убойного отдела Лос Анджелеса Гарри Босхе, который ведет ... 10 10 2
Торрент: Зарегистрирован [2017-05-05 08:52] · скачан: 58 раз
Статус: √ проверено
Размер: 4.47 GB
Как cкачать? Как скачать Босх через торрент | qTorrent

% Раздел Тема Автор DL S | L
Зарубежные сериалы [ 35.29 GB ] Босх / Бош / Bosch / Сезон: 3 / Серия: 1-10 из 10 [2017 WEB-DL 1080p] DUB [True Dubbing Studio] bober100 Скачать
1 | 0
Зарубежные сериалы [ 23.76 GB ] Босх / Bosch / Сезон: 3 / Серии 1-10 из 10 [2017 WEBRip 720p] [MVO] killermax2013 Скачать
1 | 0
Зарубежные сериалы [ 5.26 GB ] Босх / Bosch / Сезон: 3 / Серии 1-10 из 10 [2017 WEBRip] [MVO] killermax2013 Скачать
1 | 0


Последний раз редактировалось: killermax2013 (2017-05-05 08:52), всего редактировалось 1 раз

28-11-2019 20:33  

Отключить всю рекламу на сайте

27-06-2017 20:49 Босх Скачать торрент  

Спасибо, огромное за озвучку хамстер студии, в отличии от фокус студии и голоса и атмосферность лучше восприятия происходящего да и перевод мне лично нравится больше.........pb.wtf



    Дорогой пользователь! Огромная просьба, поблагодарите релизера, оцените раздачу и оставьте свои комментарий, если Вы скачали Босх через торрент бесплатно! Внесите свою лепту в развитие PiratBit!
    Комментировать посты могут только пользователи прошедшие не сложную регистрацию
    Показать сообщения:    

    Босх через торрент
    Скачать бесплатно Босх
    Босх скачать торрент
    Босх смотреть онлайн
    Cкачать фильм Босх бесплатно
    Босх скачать торрент в хорошем качестве
    Босх смотреть онлайн бесплатно в хорошем качестве


    Вы не можете начинать темы
    Вы не можете отвечать на сообщения
    Вы не можете редактировать свои сообщения
    Вы не можете удалять свои сообщения
    Вы не можете голосовать в опросах
    Вы не можете прикреплять файлы к сообщениям
    Вы можете скачивать файлы