Ссылка на приватное зеркало нашего сайта всего за 1$. Внимание количество ограничено!!!

2 сезон

iTunes

1 сезон

1

iTunes

iTunes

iTunes

1 сезон

RePack

30

ИГРА 18+

pack

ВАЖНО

!!Акция!!

Alien_RageХит недели

RePack

MK11
pack

Забери бонус

RePack

jed

!!Акция!!

Alien_Rage

RePack

fifa19

RePack

Assassins Creed: Odyssey

RePack

NEED FOR SPEED™ PAYBACK

4 сезон

9 сезон

Бесстыжие 9 сезон

Все сериалы

все сериалы на PB.wtf

RePack

FAR CRY 5
  

Трасса смерти / Серии: 1-10 из 10 (Денис Нейманд) [2017, детектив, триллер, HDTVRip-AVC] ExKinoRay pb.wtf

Трасса смерти через торрент pb.wtf

Размер: 7.01 GB | Добавлен: 3 года 6 мес. назад | Торрент скачан:596 раз
Скачать  

23-04-2017 13:05 Трасса смерти Скачать торрент  

Информация о фильме
Оригинальное название: Трасса смерти
Год выпуска: 2017
Страна: Россия
Студия: Мотор Фильм Студия
Жанр: Драма, криминал
Продолжительность: 10 х ~ 00:48:00
Режиссер: Денис Нейманд
В ролях: На трассе федерального значения банда дорожных убийц вершит террор. Преступники разбрасывают по асфальту шипы из гвоздей, останавливая машины, расстреливают автомобилистов и таинственным образом исчезают. Журналисты называют их «Банда GTA» по аналогии с известной компьютерной игрой. Дело поручают следователям Звонарёву из ОВД и Мельникову из СК по раскрытию особо тяжких преступлений. Их методы разные, но цель одна – установить личность преступников и предотвратить новые трагедии.

Описание:
На трассе федерального значения банда дорожных убийц вершит террор. Преступники разбрасывают по асфальту шипы из гвоздей, останавливая машины, расстреливают автомобилистов и таинственным образом исчезают. Журналисты называют их «Банда GTA» по аналогии с известной компьютерной игрой. Дело поручают следователям Звонарёву из ОВД и Мельникову из СК по раскрытию особо тяжких преступлений. Их методы разные, но цель одна – установить личность преступников и предотвратить новые трагедии.

Файл
Кодек: h.264
Качество: HDTVRip-AVC
Видео: MPEG-4 AVC, ~ 1920 Кбит/с, 720x404, 25.000 fps, 0,263 bpp
Аудио: 48 kHz, AC3, 2.0, 192 Kbps
Язык: Русский
General
Unique ID : 179692248042754451050661445270882695463 (0x872F77D73C3C3711AA7C27AE50BB3927)
Complete name : D:Trassa.smerti.2017.HDTVRip.AVC.ExKinoRay\Trassa.smerti.(01.seriya).2017.HDTVRip.AVC.ExKinoRay.mkv
Format : Matroska
Format version : Version 2
File size : 736 MiB
Duration : 47 min
Overall bit rate : 2 144 kb/s
Encoded date : UTC 2017-04-23 00:02:39
Writing application : mkvmerge v7.6.0 ('Garden of Dreams') 32bit built on Feb 11 2015 00:18:47
Writing library : libebml v1.3.1 + libmatroska v1.4.2

Video
ID : 1
Format : AVC
Format/Info : Advanced Video Codec
Format profile : High@L4.1
Format settings, CABAC : Yes
Format settings, ReFrames : 10 frames
Codec ID : V_MPEG4/ISO/AVC
Duration : 47 min
Bit rate : 1 950 kb/s
Width : 720 pixels
Height : 404 pixels
Display aspect ratio : 16:9
Frame rate mode : Constant
Frame rate : 25.000 FPS
Color space : YUV
Chroma subsampling : 4:2:0
Bit depth : 8 bits
Scan type : Progressive
Bits/(Pixel*Frame) : 0.268
Stream size : 655 MiB (89%)
Writing library : x264 core 144 r2525 40bb568
Encoding settings : cabac=1 / ref=10 / deblock=1:-2:-2 / analyse=0x3:0x113 / me=umh / subme=10 / psy=1 / psy_rd=1.01:0.06 / mixed_ref=1 / me_range=32 / chroma_me=1 / trellis=2 / 8x8dct=1 / cqm=0 / deadzone=21,11 / fast_pskip=1 / chroma_qp_offset=-3 / threads=12 / lookahead_threads=3 / sliced_threads=0 / nr=0 / decimate=0 / interlaced=0 / bluray_compat=0 / constrained_intra=0 / bframes=10 / b_pyramid=2 / b_adapt=2 / b_bias=0 / direct=3 / weightb=1 / open_gop=0 / weightp=2 / keyint=250 / keyint_min=25 / scenecut=40 / intra_refresh=0 / rc_lookahead=40 / rc=2pass / mbtree=0 / bitrate=1950 / ratetol=1.0 / qcomp=0.60 / qpmin=0 / qpmax=51 / qpstep=4 / cplxblur=20.0 / qblur=0.5 / vbv_maxrate=50000 / vbv_bufsize=62500 / nal_hrd=none / filler=0 / ip_ratio=1.40 / pb_ratio=1.30 / aq=1:0.90
Default : Yes
Forced : No
Color range : Limited
Color primaries : BT.709
Transfer characteristics : BT.709
Matrix coefficients : BT.709

Audio
ID : 2
Format : AC-3
Format/Info : Audio Coding 3
Mode extension : CM (complete main)
Format settings, Endianness : Big
Codec ID : A_AC3
Duration : 47 min
Bit rate mode : Constant
Bit rate : 192 kb/s
Channel(s) : 2 channels
Channel positions : Front: L R
Sampling rate : 48.0 kHz
Frame rate : 31.250 FPS (1536 spf)
Compression mode : Lossy
Stream size : 65.9 MiB (9%)
Default : Yes
Forced : No
Релиз от:

Автор релиза: pb.wtf



Скачать Трасса смерти через торрент http://i89.fastpic.ru/big/2017/0417/6d/cf855e8c51b06d0899db04c5b1caff6d.png Скачать фильм Трасса смерти через торрент бесплантно в хорошем качестве Описание:На трассе федерального значения банда дорожных убийц вершит террор. Преступники разбрасывают по асфальту шипы из гвоздей, ... 9.8 10 16
Info! Золотая раздача, скачанное не засчитывается.
Торрент: Зарегистрирован [2017-04-23 13:05] · скачан: 596 раз
Статус: √ проверено
Размер: 7.01 GB
Как cкачать? Как скачать Трасса смерти через торрент | qTorrent

28-11-2019 20:33  

Отключить всю рекламу на сайте

26-06-2018 15:22 Трасса смерти Скачать торрент  

.pb.wtf



    Дорогой пользователь! Огромная просьба, поблагодарите релизера, оцените раздачу и оставьте свои комментарий, если Вы скачали Трасса смерти через торрент бесплатно! Внесите свою лепту в развитие PiratBit!
    Комментировать посты могут только пользователи прошедшие не сложную регистрацию
    Показать сообщения:    

    Трасса смерти через торрент
    Скачать бесплатно Трасса смерти
    Трасса смерти скачать торрент
    Трасса смерти смотреть онлайн
    Cкачать фильм Трасса смерти бесплатно
    Трасса смерти скачать торрент в хорошем качестве
    Трасса смерти смотреть онлайн бесплатно в хорошем качестве


    Вы не можете начинать темы
    Вы не можете отвечать на сообщения
    Вы не можете редактировать свои сообщения
    Вы не можете удалять свои сообщения
    Вы не можете голосовать в опросах
    Вы не можете прикреплять файлы к сообщениям
    Вы можете скачивать файлы