Ссылка на приватное зеркало нашего сайта всего за 1$. Внимание количество ограничено!!!

2 сезон

iTunes

1 сезон

1

2 сезон

2 сезон

iTunes

1 сезон

RePack

30

Ultimate

ВАЖНО

ИГРА 18+

pack

RePack

MK11
pack

Забери бонус

RePack

jed

!!Акция!!

Alien_Rage

RePack

fifa19

RePack

Assassins Creed: Odyssey

RePack

NEED FOR SPEED™ PAYBACK

4 сезон

9 сезон

Бесстыжие 9 сезон

Все сериалы

все сериалы на PB.wtf

RePack

FAR CRY 5
  

24 часа: Наследие / 24: Legacy / Сезон 1 / Серии 1-12 из 12 (Джон Кассар, Стивен Хопкинс) [2017, боевик, детектив, драма, криминал, приключения, WEB-DLRip] MVO [FOX] pb.wtf

24 часа: Наследие через торрент pb.wtf

Размер: 5.91 GB | Добавлен: 3 года 7 мес. назад | Торрент скачан:36 раз
Скачать  

23-04-2017 18:04 24 часа: Наследие Скачать торрент  

24 часа: Наследие / 24: LegacyГод выпуска: 2017
Страна: США
Жанр: боевик, детектив, драма, криминал, приключения
Всего серий: 12
Продолжительность: 12 x ~ 00:45:00
Перевод: Профессиональный (многоголосый) - | FOX
Субтитры: отсутствуют

Режиссер: Джон Кассар, Стивен Хопкинс

rating

В ролях:

Кори Хоукинс, Дэн Букатинский, Анна Диоп, Чарли Хофхаймер, Миранда Отто, Корал Пенья, Тедди Сирс, Джимми Смитс, Эшли Томас, Шейла Ванд

Описание:

Герой войны возвращается домой и в силу обстоятельств вынужден обратиться за помощью в антитеррористический отдел

Качество: WEB-DLRip
Формат: AVI
Видео кодек: XviD
Аудио кодек: MP3

Видео: 720x400 (1.80:1), 23,976 fps, XviD build 73 ~1300 kbps avg, 0.19 bit/pixel
Аудио#1: Rus: 48 kHz, MPEG Layer 3, 2 ch, ~128.00 kbps avg (FOX)
Аудио#2: Eng: 48 kHz, MPEG Layer 3, 2 ch, ~128.00 kbps avg
скриншот   скриншот   скриншот   скриншот  скриншот  

Общее
Полное имя : D:\24 Legacy (Season 01) WEB-DLRip Generalfilm\24.Legacy.S01E01.WEB-DLRip.Generalfilm.avi
Формат : AVI
Формат/Информация : Audio Video Interleave
Размер файла : 521 Мбайт
Продолжительность : 46 м. 27 с.
Общий поток : 1570 Кбит/сек
Программа кодирования : VirtualDubMod 1.5.10.2 (build 2540/release)
Библиотека кодирования : VirtualDubMod build 2540/release

Видео
Идентификатор : 0
Формат : MPEG-4 Visual
Профиль формата : Advanced Simple@L5
Параметр BVOP формата : 1
Параметр QPel формата : Нет
Параметр GMC формата : Без точки перехода
Параметр матрицы формата : Default (MPEG)
Идентификатор кодека : XVID
Идентификатор кодека/Подсказка : XviD
Продолжительность : 46 м. 27 с.
Битрейт : 1300 Кбит/сек
Ширина : 720 пикселей
Высота : 400 пикселей
Соотношение сторон : 16:9
Частота кадров : 23,976 (23976/1000) кадра/сек
Цветовое пространство : YUV
Субдискретизация насыщенности : 4:2:0
Битовая глубина : 8 бит
Тип развёртки : Прогрессивная
Метод сжатия : С потерями
Бит/(Пиксели*Кадры) : 0.188
Размер потока : 432 Мбайт (83%)
Библиотека кодирования : XviD 73

Аудио #1
Идентификатор : 1
Формат : MPEG Audio
Версия формата : Version 1
Профиль формата : Layer 3
Режим : Joint stereo
Расширение режима : MS Stereo
Идентификатор кодека : 55
Идентификатор кодека/Подсказка : MP3
Продолжительность : 46 м. 27 с.
Вид битрейта : Постоянный
Битрейт : 128 Кбит/сек
Каналы : 2 канала
Частота : 48,0 КГц
Метод сжатия : С потерями
Размер потока : 42,5 Мбайт (8%)
Выравнивание : Соединение по промежуткам
Продолжительность промежутка : 42 мс. (1,00 видеокадр)
Время предзагрузки промежутка : 504 мс.

Аудио #2
Идентификатор : 2
Формат : MPEG Audio
Версия формата : Version 1
Профиль формата : Layer 3
Идентификатор кодека : 55
Идентификатор кодека/Подсказка : MP3
Продолжительность : 46 м. 27 с.
Вид битрейта : Постоянный
Битрейт : 128 Кбит/сек
Каналы : 2 канала
Частота : 48,0 КГц
Метод сжатия : С потерями
Размер потока : 42,5 Мбайт (8%)
Выравнивание : Соединение по промежуткам
Продолжительность промежутка : 42 мс. (1,00 видеокадр)
Время предзагрузки промежутка : 504 мс.
Библиотека кодирования : LAME3.99r
Настройки программы : -m s -V 4 -q 2 -lowpass 17 -b 128

pb.wtf



Скачать 24 часа: Наследие через торрент http://rudb.org/img/2017_02/07/7192204a-c2db-4abd-aae8-f8955703af17.png Скачать фильм 24 часа: Наследие через торрент бесплантно в хорошем качестве Описание: Герой войны возвращается домой и в силу обстоятельств вынужден обратиться за помощью в антитеррористический ... 7.8 10 4
Торрент: Зарегистрирован [2017-04-23 18:04] · скачан: 36 раз
Статус: √ проверено
Размер: 5.91 GB
Как cкачать? Как скачать 24 часа: Наследие через торрент | qTorrent

% Раздел Тема Автор DL S | L
Зарубежные сериалы [ 18.18 GB ] 24 часа: Наследие / 24: Legacy / Сезон: 1 / Серии 1-12 из 12 [2017 WEB-DL 720p] [MVO] killermax2013 Скачать
1 | 0
Зарубежные сериалы [ 6.45 GB ] 24 часа: Наследие / 24: Legacy / Сезон: 1 / Серии 1-12 из 12 [2017 WEB-DLRip] [MVO] killermax2013 Скачать
1 | 0
Зарубежные сериалы [ 10.04 GB ] 24 часа: Наследие / 24: Legacy / Сезон: 1 / Серии 1-12 из 12 [2016 WEB-DLRip-AVC] MVO [BaibaKo] GEKADOL Скачать
1 | 0
Зарубежные сериалы [ 3.61 GB ] 24 часа: Наследие / 24: Legacy / Сезон: 1 / Серии 1-2 из 12 [2017 WEB-DL 1080p] [MVO] killermax2013 Скачать
1 | 0

28-11-2019 20:33  

Отключить всю рекламу на сайте

    Дорогой пользователь! Огромная просьба, поблагодарите релизера, оцените раздачу и оставьте свои комментарий, если Вы скачали 24 часа: Наследие через торрент бесплатно! Внесите свою лепту в развитие PiratBit!
    Комментировать посты могут только пользователи прошедшие не сложную регистрацию
    Показать сообщения:    

    24 часа: Наследие через торрент
    Скачать бесплатно 24 часа: Наследие
    24 часа: Наследие скачать торрент
    24 часа: Наследие смотреть онлайн
    Cкачать фильм 24 часа: Наследие бесплатно
    24 часа: Наследие скачать торрент в хорошем качестве
    24 часа: Наследие смотреть онлайн бесплатно в хорошем качестве


    Вы не можете начинать темы
    Вы не можете отвечать на сообщения
    Вы не можете редактировать свои сообщения
    Вы не можете удалять свои сообщения
    Вы не можете голосовать в опросах
    Вы не можете прикреплять файлы к сообщениям
    Вы можете скачивать файлы