новый адрес пиратбит piratbit
Мега распродажа FORZA HORIZON 4 ULTIMATE+ВСЕ DLC+ОНЛАЙН всего за 499р. 349 руб. (супер цена). Внимание количество ограничено!!!

iTunes

1+1

iTunes

мы

iTunes

1

iTunes

Чернобыль

iTunes

Ральф против интернета

Лицензия

ПШазам

Лицензия

Игра престолов

Лицензия

30
pack

ВАЖНО

!!Акция!!

Alien_RageХит недели

RePack

Resident Evil 21

ИГРА 18+

pack

RePack

Metro:Exodus

!!Акция!!

Alien_Rage

RePack

fifa19

RePack

Assassins Creed: Odyssey

RePack

NEED FOR SPEED™ PAYBACK

3 сезон

9 сезон

Бесстыжие 9 сезон

Все сериалы

все сериалы на PB.wtf

RePack

FAR CRY 5
Ребята, катастрофически не хватает 1900р. для оплаты серверов за Октябрь (всвязи с блокировками трафик упал в 3 раза), 1-2р., выручайте.
  

Партизанская искра (Мечислава Маевская, Алексей Маслюков) [1957, СССР, военный, SATRip от AVP Studio] pb.wtf

Партизанская искра через торрент pb.wtf

Размер: 745 MB | Добавлен: 2 года 6 мес. назад | Торрент скачан:12 раз
Скачать  

24-04-2017 08:39 Партизанская искра Скачать торрент  

Партизанская искра
Страна: СССР
Производство: киностудия им. Довженко

Жанр: военный
Год выпуска: 1957
Продолжительность: 01:39:05

Перевод: Не требуется
Cубтитры: нет
Оригинальная аудиодорожка: русский

Режиссер: Мечислава Маевская, Алексей Маслюков

В ролях:
Владимир Лущик, Лев Борисов, Анатолий Юрченко, С. Несин, Наталья Наум, Иван Халаим, Т. Матусевич, Юрий Сарычев, Алла Боханевич, С. Брага, Николай Засеев-Руденко, Юрий Гаврилюк, Владимир Попков, Павел Усовниченко, Петр Аржанов, Эммануил Геллер, Анатолий Кубацкий, Иван Богаченко, Александр (Лесь) Подорожный, Михаил Покотило, Надежда Доценко, Тамара Тимошко-Горюшко, Григорий Козаченко, Любовь Комарецкая, Нонна Копержинская, Лариса Хоролец, Николай Дупак, Асанбек (Арсен) Умуралиев, Борис Макаров...
Об актёрах подробней

Описание:
По одноименному роману Сергея Полякова.
Вскоре после того, как в селе Крымка Одесской области был установлен «новый порядок», комсомольцы средней школы создали подпольную организацию «Партизанская искра», насчитывавшую несколько десятков человек во главе с директором школы коммунистом В. Моргуненко и учеником 10-го класса комсомольцем Парфентием Гречаным. Они принимали по радио сводки Совинформбюро, писали листовки и распространяли их среди жителей окрестных сел... В декабре 1942 года патриоты пустили под откос вражеский эшелон с солдатами и боеприпасами. Вскоре организовали побег 200 военнопленных из лагеря в Новоандреевке. Из-за необдуманного поступка одного из ребят их организация была раскрыта, юные подпольщики схвачены и казнены фашистами... Когда ребят вели на казнь, Парфентию Гречаному удалось бежать, переплыв Буг. Но он, смертельно раненый, умер на руках у матери...

Источник: DVB
Качество видео: SATRip
Формат видео: AVI

Видео: 576x432 (4:3), 25 fps, XviD ~ 914 kbps avg, 0.147 bit/pixel
Аудио: 48 kHz, MP3 2.0, 128 kbps

Раздача от:
Общее
Полное имя : Partizanskaya.iskra.1957.SATRip-745_[New-team]_by_AVP_Studio.avi
Формат : AVI
Формат/Информация : Audio Video Interleave
Размер файла : 745 Мбайт
Продолжительность : 1 ч. 39 м.
Общий поток : 1052 Кбит/сек
Программа кодирования : VirtualDubMod 1.5.10.3 | www.virtualdub-fr.org || (build 2550/release)
Библиотека кодирования : VirtualDubMod build 2550/release

Видео
Идентификатор : 0
Формат : MPEG-4 Visual
Профиль формата : Advanced Simple@L5
Параметр BVOP формата : 1
Параметр QPel формата : Нет
Параметр GMC формата : Без точки перехода
Параметр матрицы формата : Выборочная
Идентификатор кодека : XVID
Идентификатор кодека/Подсказка : XviD
Продолжительность : 1 ч. 39 м.
Битрейт : 914 Кбит/сек
Ширина : 576 пикселей
Высота : 432 пикселя
Соотношение сторон : 4:3
Частота кадров : 25,000 кадров/сек
Цветовое пространство : YUV
Субдискретизация насыщенности : 4:2:0
Битовая глубина : 8 бит
Тип развёртки : Прогрессивная
Метод сжатия : С потерями
Бит/(Пиксели*Кадры) : 0.147
Размер потока : 648 Мбайт (87%)
Библиотека кодирования : XviD 73

Аудио
Идентификатор : 1
Формат : MPEG Audio
Версия формата : Version 1
Профиль формата : Layer 3
Идентификатор кодека : 55
Идентификатор кодека/Подсказка : MP3
Продолжительность : 1 ч. 39 м.
Вид битрейта : Постоянный
Битрейт : 128 Кбит/сек
Каналы : 2 канала
Частота : 48,0 КГц
Метод сжатия : С потерями
Размер потока : 90,7 Мбайт (12%)
Выравнивание : Соединение по промежуткам
Продолжительность промежутка : 40 мс. (1,00 видеокадр)
Время предзагрузки промежутка : 504 мс.
Библиотека кодирования : LAME3.99r
Настройки программы : -m s -V 4 -q 2 -lowpass 17 -b 128
pb.wtf



Скачать Партизанская искра через торрент http://s018.radikal.ru/i501/1704/15/15de9b079980.png Скачать фильм Партизанская искра через торрент бесплантно в хорошем качестве Описание:По одноименному роману Сергея Полякова.Вскоре после того, как в селе Крымка Одесской области был установлен «новый порядок», ... 10 10 1
Info! Золотая раздача, скачанное не засчитывается.
Торрент: Зарегистрирован [2017-04-24 08:39] · скачан: 12 раз
Статус: √ проверено
Размер: 745 MB
Как cкачать? Как скачать Партизанская искра через торрент | qTorrent

% Раздел Тема Автор DL S | L
Кино СССР [ 1.46 GB ] Партизанская искра [1957 СССР военный SATRip-AVC от AVP Studio] AVP Studio Скачать
1 | 0
Кино СССР [ 1.46 GB ] Партизанская искра [1957 СССР военный SATRip от AVP Studio] AVP Studio Скачать
1 | 0


>> Регистрируемся здесь <<






Отзывы и комментарии о схеме читаем и пишем здесь: ---> Отзывы и комментарии о схеме

Новые благодарочки в телеграм довольных пользователей:
скриншот   скриншот   скриншот   скриншот   скриншот
    Дорогой пользователь! Огромная просьба, поблагодарите релизера, оцените раздачу и оставьте свои комментарий, если Вы скачали Партизанская искра через торрент бесплатно! Внесите свою лепту в развитие PiratBit!
    Комментировать посты могут только пользователи прошедшие не сложную регистрацию
    Показать сообщения:    

    Партизанская искра через торрент
    Скачать бесплатно Партизанская искра
    Партизанская искра скачать торрент
    Партизанская искра смотреть онлайн
    Cкачать фильм Партизанская искра бесплатно
    Партизанская искра скачать торрент в хорошем качестве
    Партизанская искра смотреть онлайн бесплатно в хорошем качестве


    Вы не можете начинать темы
    Вы не можете отвечать на сообщения
    Вы не можете редактировать свои сообщения
    Вы не можете удалять свои сообщения
    Вы не можете голосовать в опросах
    Вы не можете прикреплять файлы к сообщениям
    Вы можете скачивать файлы