Ссылка на приватное зеркало нашего сайта всего за 1$. Внимание количество ограничено!!!

2 сезон

iTunes

1 сезон

1

iTunes

iTunes

iTunes

1 сезон

RePack

30

ИГРА 18+

pack

ВАЖНО

!!Акция!!

Alien_RageХит недели

RePack

MK11
pack

Забери бонус

RePack

jed

!!Акция!!

Alien_Rage

RePack

fifa19

RePack

Assassins Creed: Odyssey

RePack

NEED FOR SPEED™ PAYBACK

4 сезон

9 сезон

Бесстыжие 9 сезон

Все сериалы

все сериалы на PB.wtf

RePack

FAR CRY 5
  

Бегство Логана / Logan's run (Майкл Андерсон) [1976, фантастика, боевик, BDRip 1080p by msltel] MVO pb.wtf

Бегство Логана через торрент pb.wtf

Размер: 10.01 GB | Добавлен: 3 года 6 мес. назад | Торрент скачан:76 раз
Скачать  

24-04-2017 12:22 Бегство Логана Скачать торрент  

Название: Бегство Логана
Оригинальное название: Logan's run
Год выпуска: 1976
Страна: США
Жанр: фантастика, боевик
Продолжительность: 01:58:31
Перевод: профессиональный многоголосый

Режиссёр: Майкл Андерсон

В ролях: Майкл Йорк, Ричард Джордан, Дженни Агаттер, Роско Ли Браун, Фарра Фосетт, Майкл Андерсон мл., Питер Устинов, Рэндольф Робертс, Лара Линдсэй, Гари Морган

Описание: 23 столетие. Для переживших войну основан город под куполом, где люди живут в сбалансированном мире, полностью доверившись машинам. Продолжительность жизни ограничена 30-тью годами, после которых якобы происходит возрождение в «Огненной карусели». Но так ли это на самом деле?...



Качество: BDRip 1080p
Формат: MKV
Видео: MPEG-4 AVC, 11.3 Mбит/с, 1920x800, 23,976 кадра/с
Аудио 1: русский, AC3, 192 kbps, 2 ch, 48 kHz [профессиональный многоголосый, HTB]
Аудио 2: английский, AC3, 640 kbps, 6 ch, 48 kHz [оригинал]
Субтитры 1: русские (для слабослышащих)
Субтитры 2: английские (для слабослышащих)
Имеются неименованные главы/чаптеры.
Общее
Уникальный идентификатор : 186617373289103000114039974640602703930 (0x8C6532E05D6D3E9E80893C20C6ADE83A)
Полное имя : D:\Video\Бегство Логана.1976.BDRip.1080p by msltel.mkv
Формат : Matroska
Версия формата : Version 4 / Version 2
Размер файла : 10,0 Гбайт
Продолжительность : 1 ч. 58 м.
Общий поток : 12,1 Мбит/сек
Название фильма : Rip by msltel
Дата кодирования : UTC 2017-04-24 09:25:29
Программа кодирования : mkvmerge v8.2.0 ('World of Adventure') 64bit
Библиотека кодирования : libebml v1.3.1 + libmatroska v1.4.2

Видео
Идентификатор : 1
Формат : AVC
Формат/Информация : Advanced Video Codec
Профиль формата : High@L4.1
Параметр CABAC формата : Да
Параметр ReFrames формата : 4 кадра
Идентификатор кодека : V_MPEG4/ISO/AVC
Продолжительность : 1 ч. 58 м.
Битрейт : 11,3 Мбит/сек
Ширина : 1920 пикселей
Высота : 800 пикселей
Соотношение сторон : 2,40:1
Режим частоты кадров : Постоянный
Частота кадров : 23,976 (24000/1001) кадра/сек
Цветовое пространство : YUV
Субдискретизация насыщенности : 4:2:0
Битовая глубина : 8 бит
Тип развёртки : Прогрессивная
Бит/(Пиксели*Кадры) : 0.306
Размер потока : 9,32 Гбайт (93%)
Библиотека кодирования : x264 core 146 r2538 121396c
Настройки программы : cabac=1 / ref=4 / deblock=1:-3:-2 / analyse=0x3:0x113 / me=umh / subme=11 / psy=1 / psy_rd=1.00:0.15 / mixed_ref=1 / me_range=32 / chroma_me=1 / trellis=2 / 8x8dct=1 / cqm=0 / deadzone=21,11 / fast_pskip=0 / chroma_qp_offset=-3 / threads=6 / lookahead_threads=1 / sliced_threads=0 / nr=0 / decimate=1 / interlaced=0 / bluray_compat=0 / constrained_intra=0 / bframes=11 / b_pyramid=2 / b_adapt=2 / b_bias=0 / direct=1 / weightb=1 / open_gop=0 / weightp=2 / keyint=230 / keyint_min=23 / scenecut=40 / intra_refresh=0 / rc_lookahead=40 / rc=crf / mbtree=0 / crf=19.5 / qcomp=0.60 / qpmin=0 / qpmax=69 / qpstep=4 / vbv_maxrate=62500 / vbv_bufsize=78125 / crf_max=0.0 / nal_hrd=none / filler=0 / ip_ratio=1.40 / pb_ratio=1.30 / aq=1:1.00
Язык : English
Default : Да
Forced : Нет

Аудио #1
Идентификатор : 2
Формат : AC-3
Формат/Информация : Audio Coding 3
Параметр Endianness формата : Big
Идентификатор кодека : A_AC3
Продолжительность : 1 ч. 58 м.
Вид битрейта : Постоянный
Битрейт : 192 Кбит/сек
Каналы : 2 канала
Расположение каналов : Front: L R
Частота : 48,0 КГц
Частота кадров : 31,250 кадров/сек (1536 spf)
Битовая глубина : 16 бит
Метод сжатия : С потерями
Размер потока : 163 Мбайт (2%)
Заголовок : MVO (HTB)
Язык : Russian
ServiceKind/String : Complete Main
Default : Да
Forced : Нет

Аудио #2
Идентификатор : 3
Формат : AC-3
Формат/Информация : Audio Coding 3
Параметр Endianness формата : Big
Идентификатор кодека : A_AC3
Продолжительность : 1 ч. 58 м.
Вид битрейта : Постоянный
Битрейт : 640 Кбит/сек
Каналы : 6 каналов
Расположение каналов : Front: L C R, Side: L R, LFE
Частота : 48,0 КГц
Частота кадров : 31,250 кадров/сек (1536 spf)
Битовая глубина : 16 бит
Метод сжатия : С потерями
Размер потока : 543 Мбайт (5%)
Заголовок : original
Язык : English
ServiceKind/String : Complete Main
Default : Нет
Forced : Нет

Текст #1
Идентификатор : 4
Формат : UTF-8
Идентификатор кодека : S_TEXT/UTF8
Идентификатор кодека/Информация : UTF-8 Plain Text
Продолжительность : 1 ч. 58 м.
Битрейт : 56 бит/сек
ElementCount : 1148
Размер потока : 49,2 Кбайт (0%)
Заголовок : русские (для слабослышащих)
Язык : Russian
Default : Нет
Forced : Нет

Текст #2
Идентификатор : 5
Формат : UTF-8
Идентификатор кодека : S_TEXT/UTF8
Идентификатор кодека/Информация : UTF-8 Plain Text
Продолжительность : 1 ч. 55 м.
Битрейт : 38 бит/сек
ElementCount : 1220
Размер потока : 32,8 Кбайт (0%)
Заголовок : английские (для слабослышащих)
Язык : English
Default : Нет
Forced : Нет

Меню
00:00:00.000 : :Chapter 01
00:02:38.867 : :Chapter 02
00:05:14.731 : :Chapter 03
00:10:31.756 : :Chapter 04
00:14:10.391 : :Chapter 05
00:19:09.106 : :Chapter 06
00:21:48.181 : :Chapter 07
00:28:31.126 : :Chapter 08
00:34:51.798 : :Chapter 09
00:43:43.037 : :Chapter 10
00:49:49.987 : :Chapter 11
00:52:47.873 : :Chapter 12
00:57:46.004 : :Chapter 13
01:00:27.749 : :Chapter 14
01:04:53.180 : :Chapter 15
01:06:35.574 : :Chapter 16
01:10:19.924 : :Chapter 17
01:12:29.720 : :Chapter 18
01:15:17.930 : :Chapter 19
01:17:40.781 : :Chapter 20
01:21:09.698 : :Chapter 21
01:32:27.875 : :Chapter 22
01:36:25.863 : :Chapter 23
01:37:48.737 : :Chapter 24
01:41:05.893 : :Chapter 25
01:42:10.124 : :Chapter 26
01:44:02.903 : :Chapter 27
01:47:28.692 : :Chapter 28
01:49:09.000 : :Chapter 29
01:53:31.930 : :Chapter 30
01:54:01.626 : :Chapter 31
01:56:25.937 : :Chapter 32
01:58:31.354 : :Chapter 33
pb.wtf



Скачать Бегство Логана через торрент http://hostpic.gq/img/2017-04/23/nalm9nxobokcwlpynv0djc539.jpg Скачать фильм Бегство Логана через торрент бесплантно в хорошем качестве Описание: 23 столетие. Для переживших войну основан город под куполом, где люди живут в сбалансированном мире, полностью доверившись ... 9.8 10 6
Info! Золотая раздача, скачанное не засчитывается.
Торрент: Зарегистрирован [2017-04-24 12:22] · скачан: 76 раз
Статус: √ проверено
Размер: 10.01 GB
Как cкачать? Как скачать Бегство Логана через торрент | qTorrent

28-11-2019 20:33  

Отключить всю рекламу на сайте

24-04-2017 14:51 Бегство Логана Скачать торрент  

Хороший фильм, Аватар нервно курит в сторонке Фильм стоит посмотреть, хотя бы ради первого скриншота pb.wtf



25-04-2017 10:21 Бегство Логана Скачать торрент  

dimon99979 писал(а):

Хороший фильм, Аватар нервно курит в сторонке Фильм стоит посмотреть, хотя бы ради первого скриншота

По-моему ради второго, больше мотивации))pb.wtf



25-04-2017 17:10 Бегство Логана Скачать торрент  

Unstopable1212 писал(а):

dimon99979 писал(а):

Хороший фильм, Аватар нервно курит в сторонке Фильм стоит посмотреть, хотя бы ради первого скриншота

По-моему ради второго, больше мотивации))

1-скрин для детей +2-5. 2-скрин дети +18pb.wtf



30-04-2017 18:43 Бегство Логана Скачать торрент  

dimon99979 писал(а):

Хороший фильм, Аватар нервно курит в сторонке Фильм стоит посмотреть, хотя бы ради первого скриншота

Первый скрин, убил напрочь)))pb.wtf



    Дорогой пользователь! Огромная просьба, поблагодарите релизера, оцените раздачу и оставьте свои комментарий, если Вы скачали Бегство Логана через торрент бесплатно! Внесите свою лепту в развитие PiratBit!
    Комментировать посты могут только пользователи прошедшие не сложную регистрацию
    Показать сообщения:    

    Бегство Логана через торрент
    Скачать бесплатно Бегство Логана
    Бегство Логана скачать торрент
    Бегство Логана смотреть онлайн
    Cкачать фильм Бегство Логана бесплатно
    Бегство Логана скачать торрент в хорошем качестве
    Бегство Логана смотреть онлайн бесплатно в хорошем качестве


    Вы не можете начинать темы
    Вы не можете отвечать на сообщения
    Вы не можете редактировать свои сообщения
    Вы не можете удалять свои сообщения
    Вы не можете голосовать в опросах
    Вы не можете прикреплять файлы к сообщениям
    Вы можете скачивать файлы