новый адрес пиратбит piratbit
Мега распродажа FORZA HORIZON 4 ULTIMATE+ВСЕ DLC+ОНЛАЙН всего за 499р. 349 руб. (супер цена). Внимание количество ограничено!!!

iTunes

1+1

iTunes

мы

iTunes

1

iTunes

Чернобыль

iTunes

Ральф против интернета

Лицензия

ПШазам

Лицензия

Игра престолов

Лицензия

30
pack

ВАЖНО

!!Акция!!

Alien_RageХит недели

RePack

Resident Evil 21

ИГРА 18+

pack

RePack

Metro:Exodus

!!Акция!!

Alien_Rage

RePack

fifa19

RePack

Assassins Creed: Odyssey

RePack

NEED FOR SPEED™ PAYBACK

3 сезон

9 сезон

Бесстыжие 9 сезон

Все сериалы

все сериалы на PB.wtf

RePack

FAR CRY 5
Ребята, катастрофически не хватает 1900р. для оплаты серверов за Октябрь (всвязи с блокировками трафик упал в 3 раза), 1-2р., выручайте.
  

Красивый, честный эмигрант в Австралии хотел бы жениться на девушке-соотечественнице / Bello, onesto, emigrato Australia sposerebbe compaesana illibata (Луиджи Дзампа) [1971 г., Комедия, DVDRip-AVC, Профессиональный (многоголосый)] от ExKinoRay pb.wtf

Красивый, честный эмигрант в Австралии хотел бы жениться на девушке-соотечественнице через торрент pb.wtf

Размер: 2.86 GB | Добавлен: 2 года 6 мес. назад | Торрент скачан:16 раз
Скачать  

24-04-2017 17:50 Красивый, честный эмигрант в Австралии хотел бы жениться на девушке-соотечественнице Скачать торрент  

Красивый честный эмигрант в Австралии хотел бы жениться на девушке-соотечественнице / Bello onesto emigrato Australia sposerebbe compaesana illibata
Год выпуска: 1971
Страна: Италия, Австралия
Жанр: Комедия
Продолжительность: 01:49:15
Перевод: Профессиональный (многоголосый)

Режиссер: Луиджи Дзампа

Премьера в мире: 22 декабря 1971

rating

В ролях: Альберто Сорди, Клаудия Кардинале, Риккардо Гарроне, Коррадо Ольми, Тано Чимароза, Анджело Инфанти, Мариса Каризи, Бетти Лукас, Джон Джуарино, Джон Кобли

Описание: Старомодный итальянец с моральными ценностями 30-40-х годов хочет найти жену в современном австралийском обществе 60-70-х!!! Он и не подозревает, что итальянские сексуальные нравы и мораль сильно изменились с момента его отъезда из Италии 30 лет назад, и более похожи на современные австралийские. Поместив объявление в итальянскую газету, он выдвигает к своей жене строгие моральные требования. Требование номер один — она должна быть девственницей.. После длительной переписки с предполагаемой невестой, в аэропорту он встречает потрясающую красавицу и естественно мгновенно влюбляется.

Качество: DVDRip-AVC
Формат: MKV
Видео кодек: MPEG4
Аудио кодек: AC3
Видео: MPEG-4 AVC, 3100 Кбит/с, 706x546@1004x546, 25 кадров/сек
Аудио#1: Русский (AC3, 2 ch, 192 Кбит/с, 48 КГц)
Аудио#2: Итальянский (AC3, 6 ch, 448 Кбит/с, 48 КГц)
Релиз от:




raw [info]: 706x546p 64:45 @ 25/1 fps (cfr)
x264 [info]: using SAR=64/45
x264 [info]: using cpu capabilities: MMX2 SSE2Fast LZCNT
x264 [info]: profile High, level 4.1
x264 [info]: frame I:936 Avg QP:17.63 size: 61227
x264 [info]: frame P:38290 Avg QP:20.09 size: 29613
x264 [info]: frame B:124654 Avg QP:21.97 size: 10820
x264 [info]: consecutive B-frames: 2.0% 3.0% 13.6% 24.9% 16.0% 33.7% 4.7% 0.4% 0.2% 0.1% 0.1% 0.0% 0.0% 0.4% 0.0% 0.2% 0.6%
-----
Общее
Уникальный идентификатор : 201223753546365984661073089154039870129 (0x97624905FE2E7D788AB908A350AEF2B1)
Полное имя : E:\Bello.onesto.1971.DVDRip-AVC.ExKinoRay.mkv
Формат : Matroska
Версия формата : Version 2
Размер файла : 2,86 Гбайт
Продолжительность : 1 ч. 49 м.
Общий поток : 3742 Кбит/сек
Дата кодирования : UTC 2017-04-24 14:26:01
Программа кодирования : mkvmerge v7.8.0 ('River Man') 32bit built on Apr 3 2015 12:11:22
Библиотека кодирования : libebml v1.3.1 + libmatroska v1.4.2

Видео
Идентификатор : 1
Формат : AVC
Формат/Информация : Advanced Video Codec
Профиль формата : High@L4.1
Параметр CABAC формата : Да
Параметр ReFrames формата : 14 кадров
Идентификатор кодека : V_MPEG4/ISO/AVC
Продолжительность : 1 ч. 49 м.
Битрейт : 3100 Кбит/сек
Ширина : 706 пикселей
Высота : 546 пикселей
Соотношение сторон : 1,85:1
Режим частоты кадров : Постоянный
Частота кадров : 25,000 кадров/сек
Цветовое пространство : YUV
Субдискретизация насыщенности : 4:2:0
Битовая глубина : 8 бит
Тип развёртки : Прогрессивная
Бит/(Пиксели*Кадры) : 0.322
Размер потока : 2,31 Гбайт (81%)
Библиотека кодирования : x264 core 148 r2638 7599210
Настройки программы : cabac=1 / ref=14 / deblock=1:-2:-2 / analyse=0x3:0x133 / me=umh / subme=10 / psy=1 / psy_rd=1.05:0.15 / mixed_ref=1 /

me_range=32 / chroma_me=1 / trellis=2 / 8x8dct=1 / cqm=0 / deadzone=21,11 / fast_pskip=0 / chroma_qp_offset=-3 / threads=4 / lookahead_threads=1 / sliced_threads=0 / nr=0

/ decimate=0 / interlaced=0 / bluray_compat=0 / constrained_intra=0 / bframes=16 / b_pyramid=2 / b_adapt=2 / b_bias=0 / direct=3 / weightb=1 / open_gop=0 / weightp=2 /

keyint=250 / keyint_min=25 / scenecut=40 / intra_refresh=0 / rc=2pass / mbtree=0 / bitrate=3100 / ratetol=1.0 / qcomp=0.60 / qpmin=0 / qpmax=69 / qpstep=4 / cplxblur=20.0

/ qblur=0.5 / ip_ratio=1.40 / pb_ratio=1.30 / aq=1:1.00
Язык : English
Default : Да
Forced : Нет
Цветовой диапазон : Limited
Основные цвета : BT.601 NTSC
Характеристики трансфера : BT.601
Коэффициенты матрицы : BT.601

Аудио #1
Идентификатор : 2
Формат : AC-3
Формат/Информация : Audio Coding 3
Расширение режима : CM (complete main)
Параметр Endianness формата : Big
Идентификатор кодека : A_AC3
Продолжительность : 1 ч. 49 м.
Вид битрейта : Постоянный
Битрейт : 192 Кбит/сек
Каналы : 2 канала
Расположение каналов : Front: L R
Частота : 48,0 КГц
Частота кадров : 31,250 кадров/сек (1536 spf)
Метод сжатия : С потерями
Размер потока : 150 Мбайт (5%)
Язык : Russian
Default : Да
Forced : Нет

Аудио #2
Идентификатор : 3
Формат : AC-3
Формат/Информация : Audio Coding 3
Расширение режима : CM (complete main)
Параметр Endianness формата : Big
Идентификатор кодека : A_AC3
Продолжительность : 1 ч. 49 м.
Вид битрейта : Постоянный
Битрейт : 448 Кбит/сек
Каналы : 6 каналов
Расположение каналов : Front: L C R, Side: L R, LFE
Частота : 48,0 КГц
Частота кадров : 31,250 кадров/сек (1536 spf)
Метод сжатия : С потерями
Размер потока : 350 Мбайт (12%)
Язык : Italian
Default : Нет
Forced : Нет

pb.wtf



Скачать Красивый, честный эмигрант в Австралии хотел бы жениться на девушке-соотечественнице через торрент http://s019.radikal.ru/i612/1704/00/b6ee9aa8a5a3.jpg Скачать фильм Красивый, честный эмигрант в Австралии хотел бы жениться на девушке-соотечественнице через торрент бесплантно в хорошем качестве Описание: Старомодный итальянец с моральными ценностями 30-40-х годов хочет найти жену в современном австралийском обществе 60-70-х!!! Он и ... 10 10 2
Info! Золотая раздача, скачанное не засчитывается.
Торрент: Зарегистрирован [2017-04-24 17:50] · скачан: 16 раз
Статус: √ проверено
Размер: 2.86 GB
Как cкачать? Как скачать Красивый, честный эмигрант в Австралии хотел бы жениться на девушке-соотечественнице через торрент | qTorrent


>> Регистрируемся здесь <<






Отзывы и комментарии о схеме читаем и пишем здесь: ---> Отзывы и комментарии о схеме

Новые благодарочки в телеграм довольных пользователей:
скриншот   скриншот   скриншот   скриншот   скриншот
    Дорогой пользователь! Огромная просьба, поблагодарите релизера, оцените раздачу и оставьте свои комментарий, если Вы скачали Красивый, честный эмигрант в Австралии хотел бы жениться на девушке-соотечественнице через торрент бесплатно! Внесите свою лепту в развитие PiratBit!
    Комментировать посты могут только пользователи прошедшие не сложную регистрацию
    Показать сообщения:    

    Красивый, честный эмигрант в Австралии хотел бы жениться на девушке-соотечественнице через торрент
    Скачать бесплатно Красивый, честный эмигрант в Австралии хотел бы жениться на девушке-соотечественнице
    Красивый, честный эмигрант в Австралии хотел бы жениться на девушке-соотечественнице скачать торрент
    Красивый, честный эмигрант в Австралии хотел бы жениться на девушке-соотечественнице смотреть онлайн
    Cкачать фильм Красивый, честный эмигрант в Австралии хотел бы жениться на девушке-соотечественнице бесплатно
    Красивый, честный эмигрант в Австралии хотел бы жениться на девушке-соотечественнице скачать торрент в хорошем качестве
    Красивый, честный эмигрант в Австралии хотел бы жениться на девушке-соотечественнице смотреть онлайн бесплатно в хорошем качестве


    Вы не можете начинать темы
    Вы не можете отвечать на сообщения
    Вы не можете редактировать свои сообщения
    Вы не можете удалять свои сообщения
    Вы не можете голосовать в опросах
    Вы не можете прикреплять файлы к сообщениям
    Вы можете скачивать файлы