Ссылка на приватное зеркало нашего сайта всего за 1$. Внимание количество ограничено!!!

2 сезон

iTunes

1 сезон

1

iTunes

iTunes

iTunes

1 сезон

RePack

30

ИГРА 18+

pack

ВАЖНО

!!Акция!!

Alien_RageХит недели

RePack

MK11
pack

Забери бонус

RePack

jed

!!Акция!!

Alien_Rage

RePack

fifa19

RePack

Assassins Creed: Odyssey

RePack

NEED FOR SPEED™ PAYBACK

4 сезон

9 сезон

Бесстыжие 9 сезон

Все сериалы

все сериалы на PB.wtf

RePack

FAR CRY 5
  

Отцы / 1-12 серия из 12 (Аршо Арутюнян) [2017, боевик, криминал, драма, HDTVRip] pb.wtf

Скачать  

24-04-2017 20:21 Отцы Скачать торрент  

Отцы
Год выпуска: 2017
Страна: Россия
Жанр: боевик, криминал, драма
Продолжительность: 12 x ~ 00:45:00
Субтитры: отсутствуют

Режиссер: Аршо Арутюнян



В ролях:

Иван Оганесян, Владимир Стеклов, Маруся Климова, Анастасия Уколова, Света Егорова, Артём Чилек, Анна Котова, Максим Дахненко, Константин Адаев, Василий Шлыков, Сергей Губанов, Петар Зекавица и др.

Описание:

Кипр, сборы женских молодежных команд по волейболу. Российские старшеклассницы одерживают победу в товарищеском матче и вылетают в Москву на частном самолете своего состоятельного спонсора. Вскоре после взлета связь с экипажем теряется, а само судно пропадает с радаров. Через несколько часов напряженных поисков самолет находят на территории Ливии. Девушки оказались в руках радикальных исламистов — часть пленниц готовят к продаже на черном рынке трансплантологов, а оставшихся ждет незавидное будущее в гаремах и борделях. Среди похищенных россиянок оказалась Катя, дочь бывшего сотрудника спецслужб по имени Олег. Он незамедлительно приступает к спасению дочери, объединяя усилия с отцами других девочек из команды. Ради спасения дочерей совершенно обыкновенным мужчинам придётся совершить невозможное.

Качество: HDTVRip
Формат: AVI
Видео кодек: XviD
Аудио кодек: AC3

Видео: 720x400 (1.80:1), 25 fps, XviD build 73 ~1587 kbps avg, 0.22 bit/pixel
Аудио#1: 48 kHz, AC3 Dolby Digital, 2/0 (L,R) ch, ~192 kbps
скриншот   скриншот   скриншот   скриншот  

скриншот   скриншот   скриншот   скриншот  

скриншот   скриншот   скриншот   скриншот  

Общее
Полное имя : D:\Otcy.2016.HDTVRip.Files-x\01.Otcy.2016.HDTVRip.Files-x.avi
Формат : AVI
Формат/Информация : Audio Video Interleave
Размер файла : 550 Мбайт
Продолжительность : 43 м. 0 с.
Общий поток : 1789 Кбит/сек
Программа кодирования : VirtualDubMod 1.5.10.3 | www.virtualdub-fr.org || (build 2550/release)
Библиотека кодирования : VirtualDubMod build 2550/release

Видео
Идентификатор : 0
Формат : MPEG-4 Visual
Профиль формата : Advanced Simple@L5
Параметр BVOP формата : 1
Параметр QPel формата : Нет
Параметр GMC формата : Без точки перехода
Параметр матрицы формата : Выборочная
Идентификатор кодека : XVID
Идентификатор кодека/Подсказка : XviD
Продолжительность : 43 м. 0 с.
Битрейт : 1587 Кбит/сек
Ширина : 720 пикселей
Высота : 400 пикселей
Соотношение сторон : 16:9
Частота кадров : 25,000 кадров/сек
Цветовое пространство : YUV
Субдискретизация насыщенности : 4:2:0
Битовая глубина : 8 бит
Тип развёртки : Прогрессивная
Метод сжатия : С потерями
Бит/(Пиксели*Кадры) : 0.220
Размер потока : 488 Мбайт (89%)
Библиотека кодирования : XviD 73

Аудио
Идентификатор : 1
Формат : AC-3
Формат/Информация : Audio Coding 3
Расширение режима : CM (complete main)
Параметр Endianness формата : Big
Идентификатор кодека : 2000
Продолжительность : 43 м. 0 с.
Вид битрейта : Постоянный
Битрейт : 192 Кбит/сек
Каналы : 2 канала
Расположение каналов : Front: L R
Частота : 48,0 КГц
Частота кадров : 31,250 кадров/сек (1536 spf)
Метод сжатия : С потерями
Размер потока : 59,1 Мбайт (11%)
Выравнивание : Разделение по промежуткам
Продолжительность промежутка : 40 мс. (1,00 видеокадр)
Время предзагрузки промежутка : 500 мс.

pb.wtf



28-11-2019 20:33  

Отключить всю рекламу на сайте

    Дорогой пользователь! Огромная просьба, поблагодарите релизера, оцените раздачу и оставьте свои комментарий, если Вы скачали Отцы через торрент бесплатно! Внесите свою лепту в развитие PiratBit!
    Комментировать посты могут только пользователи прошедшие не сложную регистрацию
    Показать сообщения:    

    Отцы через торрент
    Скачать бесплатно Отцы
    Отцы скачать торрент
    Отцы смотреть онлайн
    Cкачать фильм Отцы бесплатно
    Отцы скачать торрент в хорошем качестве
    Отцы смотреть онлайн бесплатно в хорошем качестве


    Вы не можете начинать темы
    Вы не можете отвечать на сообщения
    Вы не можете редактировать свои сообщения
    Вы не можете удалять свои сообщения
    Вы не можете голосовать в опросах
    Вы не можете прикреплять файлы к сообщениям
    Вы можете скачивать файлы