2 сезон

iTunes

1 сезон

1

iTunes

iTunes

iTunes

1 сезон

RePack

30

ИГРА 18+

pack

ВАЖНО

!!Акция!!

Alien_RageХит недели

RePack

MK11
pack

Забери бонус

RePack

jed

!!Акция!!

Alien_Rage

RePack

fifa19

RePack

Assassins Creed: Odyssey

RePack

NEED FOR SPEED™ PAYBACK

4 сезон

9 сезон

Бесстыжие 9 сезон

Все сериалы

все сериалы на PB.wtf

RePack

FAR CRY 5
  

Звонки / Rings (Ф. Хавьер Гутьеррес) [2017, Ужасы, драма, BDRip 720p] DUB [iTunes] pb.wtf

Звонки через торрент pb.wtf

Размер: 5.37 GB | Добавлен: 3 года 6 мес. назад | Торрент скачан:498 раз
Скачать  

25-04-2017 04:56 Звонки Скачать торрент  

Звонки / Rings
Год выпуска: 2017
Страна: США
Жанр: Ужасы, драма
Продолжительность: 01:42:11
Перевод: Дубляж - [iTunes]
Субтитры: Русские (force, full), английские (full, SDH Colored)

Режиссер: Ф. Хавьер Гутьеррес

rating

В ролях:

Матильда Анна Ингрид Лутс, Алекс Роу, Джонни Галэки, Винсент Д`Онофрио, Эйми Тигарден, Бонни Морган, Чак Дэвид Уиллис, Патрик Р. Уокер, Зак Рериг, Лаура Уиггинс

Описание:

Молодой человек увлеченно исследует мрачную субкультуру, связанную с таинственной видеокассетой, через 7 дней после просмотра которой гибнет всякий увидевший запись. Однако, его девушка уверена, что бойфренду грозит опасность, и чтобы спасти его, она решает принять удар на себя. Её ждет немало чудовищных открытий, но самым страшным станет фильм в фильме, который прежде никто не видел.

Качество: BDRip 720p
Формат: MKV
Видео кодек: H.264
Аудио кодек: AC3

Видео: MPEG-4 AVC, 1280x720, 6500 Кbit/s, 23.976 fps
Аудио#1: Русский: 48 kHz/16 бит, AC3 Dolby Digital, 3/2 (L,C,R,l,r) + LFE ch, ~384 kbps avg [Профессиональный (полное дублирование), iTunes]
Аудио#2: Английский: 48 kHz/16 бит, AC3 Dolby Digital, 3/2 (L,C,R,l,r) + LFE ch, ~640 kbps avg [Оригинал]
скриншот   скриншот   скриншот   скриншот  

General
Unique ID : 212794425309629194226395610182112603018 (0xA016B72F9CA09297BCEFD572AEE16B8A)
Complete name : F:VideoRings.2017.BDRip.720p.ExKinoRay.mkv
Format : Matroska
Format version : Version 4 / Version 2
File size : 5.37 GiB
Duration : 1 h 42 min
Overall bit rate : 7 521 kb/s
Encoded date : UTC 2017-04-24 21:04:50
Writing application : mkvmerge v11.0.0 ('Alive') 64bit
Writing library : libebml v1.3.4 + libmatroska v1.4.5

Video
ID : 1
Format : AVC
Format/Info : Advanced Video Codec
Format profile : High@L4.1
Format settings, CABAC : Yes
Format settings, ReFrames : 9 frames
Codec ID : V_MPEG4/ISO/AVC
Duration : 1 h 42 min
Bit rate : 6 500 kb/s
Width : 1 280 pixels
Height : 720 pixels
Display aspect ratio : 16:9
Frame rate mode : Constant
Frame rate : 23.976 (23976/1000) FPS
Color space : YUV
Chroma subsampling : 4:2:0
Bit depth : 8 bits
Scan type : Progressive
Bits/(Pixel*Frame) : 0.294
Stream size : 4.64 GiB (86%)
Writing library : x264 core 146 r2538 121396c
Encoding settings : cabac=1 / ref=9 / deblock=1:-3:-3 / analyse=0x3:0x133 / me=umh / subme=11 / psy=1 / psy_rd=1.05:0.05 / mixed_ref=1 / me_range=32 / chroma_me=1 / trellis=2 / 8x8dct=1 / cqm=0 / deadzone=21,11 / fast_pskip=0 / chroma_qp_offset=-3 / threads=6 / lookahead_threads=1 / sliced_threads=0 / nr=0 / decimate=0 / interlaced=0 / bluray_compat=0 / constrained_intra=0 / bframes=8 / b_pyramid=2 / b_adapt=2 / b_bias=0 / direct=3 / weightb=1 / open_gop=0 / weightp=2 / keyint=240 / keyint_min=23 / scenecut=40 / intra_refresh=0 / rc_lookahead=50 / rc=2pass / mbtree=0 / bitrate=6500 / ratetol=1.0 / qcomp=0.60 / qpmin=0 / qpmax=69 / qpstep=4 / cplxblur=20.0 / qblur=0.5 / vbv_maxrate=50000 / vbv_bufsize=62500 / nal_hrd=none / filler=0 / ip_ratio=1.40 / pb_ratio=1.30 / aq=1:0.80
Language : English
Default : Yes
Forced : No

Audio #1
ID : 2
Format : AC-3
Format/Info : Audio Coding 3
Format settings, Endianness : Big
Codec ID : A_AC3
Duration : 1 h 42 min
Bit rate mode : Constant
Bit rate : 384 kb/s
Channel(s) : 6 channels
Channel positions : Front: L C R, Side: L R, LFE
Sampling rate : 48.0 kHz
Frame rate : 31.250 FPS (1536 spf)
Bit depth : 16 bits
Compression mode : Lossy
Stream size : 281 MiB (5%)
Title : iTunes
Language : Russian
Service kind : Complete Main
Default : Yes
Forced : No

Audio #2
ID : 3
Format : AC-3
Format/Info : Audio Coding 3
Format settings, Endianness : Big
Codec ID : A_AC3
Duration : 1 h 42 min
Bit rate mode : Constant
Bit rate : 640 kb/s
Channel(s) : 6 channels
Channel positions : Front: L C R, Side: L R, LFE
Sampling rate : 48.0 kHz
Frame rate : 31.250 FPS (1536 spf)
Bit depth : 16 bits
Compression mode : Lossy
Stream size : 468 MiB (9%)
Title : Original
Language : English
Service kind : Complete Main
Default : No
Forced : No

Text #1
ID : 4
Format : UTF-8
Codec ID : S_TEXT/UTF8
Codec ID/Info : UTF-8 Plain Text
Duration : 1 h 38 min
Bit rate : 0 b/s
Count of elements : 17
Stream size : 726 Bytes (0%)
Title : Forced
Language : Russian
Default : Yes
Forced : No

Text #2
ID : 5
Format : UTF-8
Codec ID : S_TEXT/UTF8
Codec ID/Info : UTF-8 Plain Text
Duration : 1 h 41 min
Bit rate : 48 b/s
Count of elements : 793
Stream size : 36.2 KiB (0%)
Title : Full
Language : Russian
Default : No
Forced : No

Text #3
ID : 6
Format : UTF-8
Codec ID : S_TEXT/UTF8
Codec ID/Info : UTF-8 Plain Text
Duration : 1 h 36 min
Bit rate : 30 b/s
Count of elements : 795
Stream size : 21.3 KiB (0%)
Title : Full
Language : English
Default : No
Forced : No

Text #4
ID : 7
Format : UTF-8
Codec ID : S_TEXT/UTF8
Codec ID/Info : UTF-8 Plain Text
Duration : 1 h 36 min
Bit rate : 50 b/s
Count of elements : 999
Stream size : 35.8 KiB (0%)
Title : SDH {Colored)
Language : English
Default : No
Forced : No

Menu
00:00:00.000 : en:00:00:00.000
00:08:42.731 : en:00:08:42.731
00:15:28.136 : en:00:15:28.136
00:20:39.989 : en:00:20:39.989
00:25:25.190 : en:00:25:25.190
00:32:55.182 : en:00:32:55.182
00:39:17.855 : en:00:39:17.855
00:48:53.722 : en:00:48:53.722
00:55:06.929 : en:00:55:06.929
01:00:24.371 : en:01:00:24.371
01:07:38.221 : en:01:07:38.221
01:18:21.113 : en:01:18:21.113
01:31:47.210 : en:01:31:47.210
01:36:37.500 : en:01:36:37.500

pb.wtf



Скачать Звонки через торрент http://pic1.kartinco.top/images/11/boyp4.jpg Скачать фильм Звонки через торрент бесплантно в хорошем качестве Описание: Молодой человек увлеченно исследует мрачную субкультуру, связанную с таинственной видеокассетой, через 7 дней после просмотра ... 9.8 10 19
Торрент: Зарегистрирован [2017-04-25 04:56] · скачан: 498 раз
Статус: √ проверено
Размер: 5.37 GB
Как cкачать? Как скачать Звонки через торрент | qTorrent

% Раздел Тема Автор DL S | L
T Релизы по Парсеру [Игры, Сериалы и Фильмы и другое...] [ 15.91 GB ] Звонки / Rings [2017 BDRip 1080p] 2xDUB bober100 Скачать
1 | 0
Фильмы (Blu-ray, BD-Remux, HDDVD) [ 25.26 GB ] Звонки / Rings [2017 BD Remux 1080p] DUB [] bober100 Скачать
1 | 0
Фильмы без перевода [ 24.37 GB ] Звонки / Rings [2016 BD Remux] [Оригинал-ENG] smaster Скачать
1 | 0
Фильмы 2017 [DVDrip, WEB-DLRip, HDrip] (DUB, MVO) [ 1.46 GB ] Звонки / Rings [2017 BDRip] - [] Twi7ter Скачать
1 | 0
Фильмы [HD 720p, 1080p] (Хороший звук DUB, MVO) [ 10.89 GB ] Звонки / Rings [2017 BDRip 1080p] DUB [] bober100 Скачать
1 | 0
Фильмы 2017 [DVDrip, WEB-DLRip, HDrip] (DUB, MVO) [ 2.05 GB ] Звонки / Rings [2017 HDRip "BD CEE"] coc900 Скачать
1 | 0
Фильмы [HD 720p, 1080p] (Хороший звук DUB, MVO) [ 5.55 GB ] Звонки / Rings [2017 BDRip 720p] DUB [] bober100 Скачать
1 | 0

28-11-2019 20:33  

Отключить всю рекламу на сайте

    Дорогой пользователь! Огромная просьба, поблагодарите релизера, оцените раздачу и оставьте свои комментарий, если Вы скачали Звонки через торрент бесплатно! Внесите свою лепту в развитие PiratBit!
    Комментировать посты могут только пользователи прошедшие не сложную регистрацию
    Показать сообщения:    

    Звонки через торрент
    Скачать бесплатно Звонки
    Звонки скачать торрент
    Звонки смотреть онлайн
    Cкачать фильм Звонки бесплатно
    Звонки скачать торрент в хорошем качестве
    Звонки смотреть онлайн бесплатно в хорошем качестве


    Вы не можете начинать темы
    Вы не можете отвечать на сообщения
    Вы не можете редактировать свои сообщения
    Вы не можете удалять свои сообщения
    Вы не можете голосовать в опросах
    Вы не можете прикреплять файлы к сообщениям
    Вы можете скачивать файлы