Ссылка на приватное зеркало нашего сайта всего за 1$. Внимание количество ограничено!!!

2 сезон

iTunes

1 сезон

1

iTunes

iTunes

iTunes

1 сезон

RePack

30

ИГРА 18+

pack

ВАЖНО

!!Акция!!

Alien_RageХит недели

RePack

MK11
pack

Забери бонус

RePack

jed

!!Акция!!

Alien_Rage

RePack

fifa19

RePack

Assassins Creed: Odyssey

RePack

NEED FOR SPEED™ PAYBACK

4 сезон

9 сезон

Бесстыжие 9 сезон

Все сериалы

все сериалы на PB.wtf

RePack

FAR CRY 5
  

Исполнитель желаний / Wishmaster (Роберт Куртцман) [1997, ужасы, фэнтези, BDRip 720p by msltel] MVO, 2 x AVO, VO pb.wtf

Исполнитель желаний через торрент pb.wtf

Размер: 4.74 GB | Добавлен: 3 года 5 мес. назад | Торрент скачан:160 раз
Скачать  

25-04-2017 08:07 Исполнитель желаний Скачать торрент  

Название: Исполнитель желаний
Оригинальное название: Wishmaster
Год выпуска: 1997
Страна: США
Жанр: ужасы, фэнтези
Продолжительность: 01:30:07
Перевод: профессиональный многоголосый, авторский, любительский одноголосый

Режиссёр: Роберт Куртцман

В ролях: Тэмми Лоурен, Эндрю Дивофф, Роберт Инглунд, Крис Леммон, Венди Бенсон-Лендис, Тони Крэйн, Дженни О`Хара, Кэйн Ходдер, Тони Тодд, Рикко Росс

Описание: Пьяный крановщик разбивает древнюю статую, в которой 800 лет хранится таинственный опал, заключающий в себе злого Джинна, имеющего неограниченную Влacть. Почти неограниченную. Джинн исполняет людские желания, забирая в обмен душу. Чтобы обрести вечную жизнь, ему нужно исполнить лишь три желания человека, пробудившего его ото сна...



Качество: BDRip 720p
Формат: MKV
Видео: MPEG-4 AVC, 6116 Кбит/с, 1280x720, 23,976 кадра/с
Аудио 1: русский, AC3, 448 kbps, 6 ch, 48 kHz [профессиональный многоголосый]
Аудио 2: русский, AC3, 192 kbps, 2 ch, 48 kHz [авторский, Сергей Визгунов]
Аудио 3: русский, AC3, 384 kbps, 6 ch, 48 kHz [авторский, Пётр Карцев]
Аудио 4: русский, AC3, 192 kbps, 2 ch, 48 kHz [любительский одноголосый]
Аудио 5: английский, AC3, 192 kbps, 2 ch, 48 kHz [оригинал]
Субтитры 1: русские
Субтитры 2: английские (для слабослышащих)
Имеются неименованные главы/чаптеры.
Общее
Уникальный идентификатор : 237445170428056941559248111559037631063 (0xB2A246C159063182BC0AE4536A973A57)
Полное имя : D:\Video\Исполнитель желаний.1997.BDRip.720p by msltel.mkv
Формат : Matroska
Версия формата : Version 4 / Version 2
Размер файла : 4,74 Гбайт
Продолжительность : 1 ч. 30 м.
Общий поток : 7526 Кбит/сек
Название фильма : Rip by msltel
Дата кодирования : UTC 2017-04-25 02:36:14
Программа кодирования : mkvmerge v8.2.0 ('World of Adventure') 64bit
Библиотека кодирования : libebml v1.3.1 + libmatroska v1.4.2

Видео
Идентификатор : 1
Формат : AVC
Формат/Информация : Advanced Video Codec
Профиль формата : High@L4.1
Параметр CABAC формата : Да
Параметр ReFrames формата : 9 кадров
Идентификатор кодека : V_MPEG4/ISO/AVC
Продолжительность : 1 ч. 30 м.
Битрейт : 6116 Кбит/сек
Ширина : 1280 пикселей
Высота : 720 пикселей
Соотношение сторон : 16:9
Режим частоты кадров : Постоянный
Частота кадров : 23,976 (24000/1001) кадра/сек
Цветовое пространство : YUV
Субдискретизация насыщенности : 4:2:0
Битовая глубина : 8 бит
Тип развёртки : Прогрессивная
Бит/(Пиксели*Кадры) : 0.277
Размер потока : 3,85 Гбайт (81%)
Библиотека кодирования : x264 core 146 r2538 121396c
Настройки программы : cabac=1 / ref=9 / deblock=1:-3:-2 / analyse=0x3:0x113 / me=umh / subme=11 / psy=1 / psy_rd=1.00:0.15 / mixed_ref=1 / me_range=32 / chroma_me=1 / trellis=2 / 8x8dct=1 / cqm=0 / deadzone=21,11 / fast_pskip=0 / chroma_qp_offset=-3 / threads=6 / lookahead_threads=1 / sliced_threads=0 / nr=0 / decimate=1 / interlaced=0 / bluray_compat=0 / constrained_intra=0 / bframes=8 / b_pyramid=2 / b_adapt=2 / b_bias=0 / direct=1 / weightb=1 / open_gop=0 / weightp=2 / keyint=230 / keyint_min=23 / scenecut=40 / intra_refresh=0 / rc_lookahead=40 / rc=crf / mbtree=0 / crf=19.0 / qcomp=0.60 / qpmin=0 / qpmax=69 / qpstep=4 / vbv_maxrate=62500 / vbv_bufsize=78125 / crf_max=0.0 / nal_hrd=none / filler=0 / ip_ratio=1.40 / pb_ratio=1.30 / aq=1:1.00
Язык : English
Default : Да
Forced : Нет

Аудио #1
Идентификатор : 2
Формат : AC-3
Формат/Информация : Audio Coding 3
Параметр Endianness формата : Big
Идентификатор кодека : A_AC3
Продолжительность : 1 ч. 30 м.
Вид битрейта : Постоянный
Битрейт : 448 Кбит/сек
Каналы : 6 каналов
Расположение каналов : Front: L C R, Side: L R, LFE
Частота : 48,0 КГц
Частота кадров : 31,250 кадров/сек (1536 spf)
Битовая глубина : 16 бит
Метод сжатия : С потерями
Размер потока : 289 Мбайт (6%)
Заголовок : MVO
Язык : Russian
ServiceKind/String : Complete Main
Default : Да
Forced : Нет

Аудио #2
Идентификатор : 3
Формат : AC-3
Формат/Информация : Audio Coding 3
Параметр Endianness формата : Big
Идентификатор кодека : A_AC3
Продолжительность : 1 ч. 30 м.
Вид битрейта : Постоянный
Битрейт : 192 Кбит/сек
Каналы : 2 канала
Расположение каналов : Front: L R
Частота : 48,0 КГц
Частота кадров : 31,250 кадров/сек (1536 spf)
Битовая глубина : 16 бит
Метод сжатия : С потерями
Размер потока : 124 Мбайт (3%)
Заголовок : AVO (Сергей Визгунов)
Язык : Russian
ServiceKind/String : Complete Main
Default : Нет
Forced : Нет

Аудио #3
Идентификатор : 4
Формат : AC-3
Формат/Информация : Audio Coding 3
Параметр Endianness формата : Big
Идентификатор кодека : A_AC3
Продолжительность : 1 ч. 29 м.
Вид битрейта : Постоянный
Битрейт : 384 Кбит/сек
Каналы : 6 каналов
Расположение каналов : Front: L C R, Side: L R, LFE
Частота : 48,0 КГц
Частота кадров : 31,250 кадров/сек (1536 spf)
Битовая глубина : 16 бит
Метод сжатия : С потерями
Размер потока : 247 Мбайт (5%)
Заголовок : AVO (Пётр Карцев)
Язык : Russian
ServiceKind/String : Complete Main
Default : Нет
Forced : Нет

Аудио #4
Идентификатор : 5
Формат : AC-3
Формат/Информация : Audio Coding 3
Параметр Endianness формата : Big
Идентификатор кодека : A_AC3
Продолжительность : 1 ч. 30 м.
Вид битрейта : Постоянный
Битрейт : 192 Кбит/сек
Каналы : 2 канала
Расположение каналов : Front: L R
Частота : 48,0 КГц
Частота кадров : 31,250 кадров/сек (1536 spf)
Битовая глубина : 16 бит
Метод сжатия : С потерями
Размер потока : 124 Мбайт (3%)
Заголовок : любительский одноголосый
Язык : Russian
ServiceKind/String : Complete Main
Default : Нет
Forced : Нет

Аудио #5
Идентификатор : 6
Формат : AC-3
Формат/Информация : Audio Coding 3
Параметр Endianness формата : Big
Идентификатор кодека : A_AC3
Продолжительность : 1 ч. 30 м.
Вид битрейта : Постоянный
Битрейт : 192 Кбит/сек
Каналы : 2 канала
Расположение каналов : Front: L R
Частота : 48,0 КГц
Частота кадров : 31,250 кадров/сек (1536 spf)
Битовая глубина : 16 бит
Метод сжатия : С потерями
Размер потока : 124 Мбайт (3%)
Заголовок : original
Язык : English
ServiceKind/String : Complete Main
Default : Нет
Forced : Нет

Текст #1
Идентификатор : 7
Формат : UTF-8
Идентификатор кодека : S_TEXT/UTF8
Идентификатор кодека/Информация : UTF-8 Plain Text
Продолжительность : 1 ч. 24 м.
Битрейт : 78 бит/сек
ElementCount : 785
Размер потока : 49,1 Кбайт (0%)
Заголовок : русские
Язык : Russian
Default : Нет
Forced : Нет

Текст #2
Идентификатор : 8
Формат : UTF-8
Идентификатор кодека : S_TEXT/UTF8
Идентификатор кодека/Информация : UTF-8 Plain Text
Продолжительность : 1 ч. 29 м.
Битрейт : 54 бит/сек
ElementCount : 1439
Размер потока : 36,0 Кбайт (0%)
Заголовок : английские (для слабослышащих)
Язык : English
Default : Нет
Forced : Нет

Меню
00:00:00.000 : en:00:00:00.000
00:07:36.456 : en:00:07:36.456
00:16:14.098 : en:00:16:14.098
00:26:44.603 : en:00:26:44.603
00:32:21.940 : en:00:32:21.940
00:39:24.112 : en:00:39:24.112
00:50:32.029 : en:00:50:32.029
00:55:59.356 : en:00:55:59.356
01:01:14.504 : en:01:01:14.504
01:07:20.620 : en:01:07:20.620
01:14:12.823 : en:01:14:12.823
01:25:24.119 : en:01:25:24.119
pb.wtf



Скачать Исполнитель желаний через торрент http://hostpic.gq/img/2017-04/25/7md6kmq75e3shl36ryc9xh2w5.jpg Скачать фильм Исполнитель желаний через торрент бесплантно в хорошем качестве Описание: Пьяный крановщик разбивает древнюю статую, в которой 800 лет хранится таинственный опал, заключающий в себе злого Джинна, ... 9.1 10 10
Info! Золотая раздача, скачанное не засчитывается.
Торрент: Зарегистрирован [2017-04-25 08:07] · скачан: 160 раз
Статус: √ проверено
Размер: 4.74 GB
Как cкачать? Как скачать Исполнитель желаний через торрент | qTorrent

% Раздел Тема Автор DL S | L
Фильмы [HD 720p, 1080p] (Хороший звук DUB, MVO) [ 10.91 GB ] Исполнитель желаний / Wishmaster [1997 BDRip 1080p by msltel] MVO 2 x AVO VO msltel Скачать
1 | 0

28-11-2019 20:33  

Отключить всю рекламу на сайте

25-04-2017 12:14 Исполнитель желаний Скачать торрент  

хороший фильм!pb.wtf



25-04-2017 16:22 Исполнитель желаний Скачать торрент  

ROBOCOP писал(а):

хороший фильм!

Конечно хороший, когда на последнем скрине сам Император Империи из ЗВ.pb.wtf



26-04-2017 14:47 Исполнитель желаний Скачать торрент  

Классика! Пожалуй скачаю, пересмотрю. pb.wtf



    Дорогой пользователь! Огромная просьба, поблагодарите релизера, оцените раздачу и оставьте свои комментарий, если Вы скачали Исполнитель желаний через торрент бесплатно! Внесите свою лепту в развитие PiratBit!
    Комментировать посты могут только пользователи прошедшие не сложную регистрацию
    Показать сообщения:    

    Исполнитель желаний через торрент
    Скачать бесплатно Исполнитель желаний
    Исполнитель желаний скачать торрент
    Исполнитель желаний смотреть онлайн
    Cкачать фильм Исполнитель желаний бесплатно
    Исполнитель желаний скачать торрент в хорошем качестве
    Исполнитель желаний смотреть онлайн бесплатно в хорошем качестве


    Вы не можете начинать темы
    Вы не можете отвечать на сообщения
    Вы не можете редактировать свои сообщения
    Вы не можете удалять свои сообщения
    Вы не можете голосовать в опросах
    Вы не можете прикреплять файлы к сообщениям
    Вы можете скачивать файлы