Ссылка на приватное зеркало всего за 1$. Внимание количество ограничено!!!

iTunes

1+1

iTunes

мы

WEB-DL

1

iTunes

Чернобыль

iTunes

Ральф против интернета

Лицензия

ПШазам

Лицензия

Оно 2

Лицензия

30
pack

Вам бонус

ВАЖНО

!!Акция!!

Alien_RageХит недели

RePack

Resident Evil 21

ИГРА 18+

pack

RePack

jed

!!Акция!!

Alien_Rage

RePack

fifa19

RePack

Assassins Creed: Odyssey

RePack

NEED FOR SPEED™ PAYBACK

3 сезон

9 сезон

Бесстыжие 9 сезон

Все сериалы

все сериалы на PB.wtf

RePack

FAR CRY 5
Ребята, катастрофически не хватает 1900р. для оплаты серверов за Октябрь (всвязи с блокировками трафик упал в 3 раза), 1-2р., выручайте.
  

Поддубенские частушки (Герберт Раппопорт ) [1957, СССР, комедия, SATRip от AVP Studio] pb.wtf

Поддубенские частушки через торрент pb.wtf

Размер: 745 MB | Добавлен: 2 года 7 мес. назад | Торрент скачан:9 раз
Скачать  

25-04-2017 08:47 Поддубенские частушки Скачать торрент  

Поддубенские частушки
Страна: СССР
Производство: Ленфильм

Жанр: комедия
Год выпуска: 1957
Продолжительность: 01:17:51

Перевод: Не требуется
Cубтитры: нет
Оригинальная аудиодорожка: русский

Режиссер: Герберт Раппопорт

В ролях:
Л. Степанов, Елена Рокотова, Светлана Карпинская, Михаил Мудров, А. Мазурина, Р. Суворова, Евгений Баскаков, Евгения Орлова, Вячеслав Тимофеев, Е. Виниченко, Галина Мочалова, Сергей Коковкин, Ю. Пугачёвская...
Об актёрах подробней

Описание:
По повести Сергея Антонова.
В основе фильма - одноименный спектакль драматической студии Ленинградского Дворца культуры им. Кирова о молодежи деревни Поддубки одного из подмосковных колхозов.
Веселая жизнерадостная молодежь славится она повсюду своими частушками: озорные и лирические, задумчивые и грустные, задорные и острые звучат они повсюду с раннего утра до поздней ночи. Кто же их сочиняет?..

Источник: DVB
Качество видео: SATRip
Формат видео: AVI

Видео: 640x480 (4:3), 25 fps, XviD ~ 1201 kbps avg, 0.156 bit/pixel
Аудио: 48 kHz, MP3 2.0, 128 kbps

Раздача от:
Общее
Полное имя : Poddubenskie.chastushki.1957.SATRip_[New-team]_by_AVP_Studio.avi
Формат : AVI
Формат/Информация : Audio Video Interleave
Размер файла : 745 Мбайт
Продолжительность : 1 ч. 17 м.
Общий поток : 1339 Кбит/сек
Программа кодирования : VirtualDubMod 1.5.10.3 | www.virtualdub-fr.org || (build 2550/release)
Библиотека кодирования : VirtualDubMod build 2550/release

Видео
Идентификатор : 0
Формат : MPEG-4 Visual
Профиль формата : Advanced Simple@L5
Параметр BVOP формата : 1
Параметр QPel формата : Нет
Параметр GMC формата : Без точки перехода
Параметр матрицы формата : Выборочная
Идентификатор кодека : XVID
Идентификатор кодека/Подсказка : XviD
Продолжительность : 1 ч. 17 м.
Битрейт : 1201 Кбит/сек
Ширина : 640 пикселей
Высота : 480 пикселей
Соотношение сторон : 4:3
Частота кадров : 25,000 кадров/сек
Цветовое пространство : YUV
Субдискретизация насыщенности : 4:2:0
Битовая глубина : 8 бит
Тип развёртки : Прогрессивная
Метод сжатия : С потерями
Бит/(Пиксели*Кадры) : 0.156
Размер потока : 669 Мбайт (90%)
Библиотека кодирования : XviD 73

Аудио
Идентификатор : 1
Формат : MPEG Audio
Версия формата : Version 1
Профиль формата : Layer 3
Идентификатор кодека : 55
Идентификатор кодека/Подсказка : MP3
Продолжительность : 1 ч. 17 м.
Вид битрейта : Постоянный
Битрейт : 128 Кбит/сек
Каналы : 2 канала
Частота : 48,0 КГц
Метод сжатия : С потерями
Размер потока : 71,3 Мбайт (10%)
Выравнивание : Соединение по промежуткам
Продолжительность промежутка : 40 мс. (1,00 видеокадр)
Время предзагрузки промежутка : 504 мс.
Библиотека кодирования : LAME3.99r
Настройки программы : -m s -V 4 -q 2 -lowpass 17 -b 128
pb.wtf



Скачать Поддубенские частушки через торрент http://s011.radikal.ru/i316/1704/6b/0db44a44ef00.png Скачать фильм Поддубенские частушки через торрент бесплантно в хорошем качестве Описание:По повести Сергея Антонова.В основе фильма - одноименный спектакль драматической студии Ленинградского Дворца культуры им. Кирова ... 10 10 1
Info! Золотая раздача, скачанное не засчитывается.
Торрент: Зарегистрирован [2017-04-25 08:47] · скачан: 9 раз
Статус: √ проверено
Размер: 745 MB
Как cкачать? Как скачать Поддубенские частушки через торрент | qTorrent

% Раздел Тема Автор DL S | L
Кино СССР [ 1.09 GB ] Поддубенские частушки [1957 СССР SATRip-AVC от AVP Studio] AVP Studio Скачать
1 | 0

28-11-2019 20:33  

Отключить всю рекламу на сайте

    Дорогой пользователь! Огромная просьба, поблагодарите релизера, оцените раздачу и оставьте свои комментарий, если Вы скачали Поддубенские частушки через торрент бесплатно! Внесите свою лепту в развитие PiratBit!
    Комментировать посты могут только пользователи прошедшие не сложную регистрацию
    Показать сообщения:    

    Поддубенские частушки через торрент
    Скачать бесплатно Поддубенские частушки
    Поддубенские частушки скачать торрент
    Поддубенские частушки смотреть онлайн
    Cкачать фильм Поддубенские частушки бесплатно
    Поддубенские частушки скачать торрент в хорошем качестве
    Поддубенские частушки смотреть онлайн бесплатно в хорошем качестве


    Вы не можете начинать темы
    Вы не можете отвечать на сообщения
    Вы не можете редактировать свои сообщения
    Вы не можете удалять свои сообщения
    Вы не можете голосовать в опросах
    Вы не можете прикреплять файлы к сообщениям
    Вы можете скачивать файлы