Ссылка на приватное зеркало нашего сайта всего за 1$. Внимание количество ограничено!!!

2 сезон

iTunes

1 сезон

1

iTunes

iTunes

iTunes

1 сезон

RePack

30

ИГРА 18+

pack

ВАЖНО

!!Акция!!

Alien_RageХит недели

RePack

MK11
pack

Забери бонус

RePack

jed

!!Акция!!

Alien_Rage

RePack

fifa19

RePack

Assassins Creed: Odyssey

RePack

NEED FOR SPEED™ PAYBACK

4 сезон

9 сезон

Бесстыжие 9 сезон

Все сериалы

все сериалы на PB.wtf

RePack

FAR CRY 5
  

Пенелопа (1-8 серии из 8) (Ольга Перуновская) [2013 г., Мелодрама, WEB-DLRip, Русский] R.G.Resident pb.wtf

Пенелопа через торрент pb.wtf

Размер: 4.38 GB | Добавлен: 3 года 6 мес. назад | Торрент скачан:5 раз
Скачать  

25-04-2017 09:24 Пенелопа Скачать торрент  

Пенелопа
Год выпуска: 2013
Страна: Россия, Кинокомпания "Русское"
Жанр: Мелодрама
Продолжительность: 8 х ~ 00:45:00
Язык: Русский

Режиссер: Ольга Перуновская

В ролях: Любовь Баханкова, Илья Алексеев, Алексей Янин, Сергей Мухин, Людмила Нильская, Леван Мсхиладзе, Павел Новиков, Тимофей Смирнов, Валентин Самохин, Лейла Кирилова, Игорь Скрипко, Екатерина Крупенина, Ксения Ильясова, Ян Цапник, Владимир Литвинов, Людмила Гаврилова, Надежда Иванова, Денис Урюпин, Елена Коллегова, Александр Стефанцов, Юлия Пивень, Анастасия Лапина, Александр Усердин, Евгения Лютая, Валентин Варецкий, Светлана Йозефий, Наталья Батрак, Евгений Антонов, Вячеслав Бухаров, Лариса Домаскина, Михаил Волков (II), Кирилл Петров

Описание: Алена – добрая и красивая, совсем юная девушка работает сортировщицей в порту. Местные парни заглядываются на нее, но она отвергает все ухаживания и ждет большой любви. Однажды в порт приплывает «прекрасный принц» из девичьих грез Иван – красавец и помощник капитана корабля. С его появлением в жизнь девушки приходит сказка – она без памяти влюбляется и совершенно теряет голову..Когда же приходит время прощаться, Иван оставляет Алене брелок-талисман и обещает непременно за ней вернуться. Но сумеет ли Пенелопа дождаться своего Одиссея или ей суждено провести жизнь в одиночестве, сидя на берегу и глядя на морские волны?

Качество: WEB-DLRip
Формат: AVI
Видео кодек: XviD
Аудио кодек: AC3
Видео: 720x400 (1.80:1), 25 fps, XviD build 65 ~1527 kbps avg, 0.21 bit/pixel
Аудио#1: 44.1 kHz, AC3 Dolby Digital, 2/0 (L,R) ch, ~192.00 kbps avg
Релиз от: ruslanishe
General
Penelopa.XviD.2013.WEB-DLRip.R.G.Resident\001.avi
Format : AVI
Format/Info : Audio Video Interleave
File size : 560 MiB
Duration : 45mn 19s
Overall bit rate : 1 729 Kbps
Director : ruslanishe
Writing application : VirtualDubMod 1.5.10.3 | www.virtualdub-fr.org || (build 2550/release)
Copyright : R.G.Resident

Video
ID : 0
Format : MPEG-4 Visual
Format profile : Advanced Simple@L5
Format settings, BVOP : 2
Format settings, QPel : No
Format settings, GMC : No warppoints
Format settings, Matrix : Custom
Codec ID : XVID
Codec ID/Hint : XviD
Duration : 45mn 19s
Bit rate : 1 527 Kbps
Width : 720 pixels
Height : 400 pixels
Display aspect ratio : 16:9
Frame rate : 25.000 fps
Color space : YUV
Chroma subsampling : 4:2:0
Bit depth : 8 bits
Scan type : Progressive
Compression mode : Lossy
Bits/(Pixel*Frame) : 0.212
Stream size : 495 MiB (88%)
Writing library : XviD 65

Audio
ID : 1
Format : AC-3
Format/Info : Audio Coding 3
Mode extension : CM (complete main)
Format settings, Endianness : Big
Codec ID : 2000
Duration : 45mn 19s
Bit rate mode : Constant
Bit rate : 192 Kbps
Channel(s) : 2 channels
Channel positions : Front: L R
Sampling rate : 44.1 KHz
Bit depth : 16 bits
Compression mode : Lossy
Stream size : 62.2 MiB (11%)
Alignment : Split accross interleaves
Interleave, duration : 40 ms (1.00 video frame)
Interleave, preload duration : 500 ms

pb.wtf



Скачать Пенелопа через торрент http://i77.fastpic.ru/big/2016/0812/af/c9528e379180771954ea454c61f59baf.jpg Скачать фильм Пенелопа через торрент бесплантно в хорошем качестве Описание: Алена – добрая и красивая, совсем юная девушка работает сортировщицей в порту. Местные парни заглядываются на нее, но она ... 9.2 10 5
Info! Золотая раздача, скачанное не засчитывается.
Торрент: Зарегистрирован [2017-04-25 09:24] · скачан: 5 раз
Статус: √ проверено
Размер: 4.38 GB
Как cкачать? Как скачать Пенелопа через торрент | qTorrent

28-11-2019 20:33  

Отключить всю рекламу на сайте

    Дорогой пользователь! Огромная просьба, поблагодарите релизера, оцените раздачу и оставьте свои комментарий, если Вы скачали Пенелопа через торрент бесплатно! Внесите свою лепту в развитие PiratBit!
    Комментировать посты могут только пользователи прошедшие не сложную регистрацию
    Показать сообщения:    

    Пенелопа через торрент
    Скачать бесплатно Пенелопа
    Пенелопа скачать торрент
    Пенелопа смотреть онлайн
    Cкачать фильм Пенелопа бесплатно
    Пенелопа скачать торрент в хорошем качестве
    Пенелопа смотреть онлайн бесплатно в хорошем качестве


    Вы не можете начинать темы
    Вы не можете отвечать на сообщения
    Вы не можете редактировать свои сообщения
    Вы не можете удалять свои сообщения
    Вы не можете голосовать в опросах
    Вы не можете прикреплять файлы к сообщениям
    Вы можете скачивать файлы