Ссылка на приватное зеркало нашего сайта всего за 1$. Внимание количество ограничено!!!

2 сезон

iTunes

1 сезон

1

iTunes

iTunes

iTunes

1 сезон

RePack

30

ИГРА 18+

pack

ВАЖНО

!!Акция!!

Alien_RageХит недели

RePack

MK11
pack

Забери бонус

RePack

jed

!!Акция!!

Alien_Rage

RePack

fifa19

RePack

Assassins Creed: Odyssey

RePack

NEED FOR SPEED™ PAYBACK

4 сезон

9 сезон

Бесстыжие 9 сезон

Все сериалы

все сериалы на PB.wtf

RePack

FAR CRY 5
  

Гаражи / 1-17 серии из 17 (Юрий Кузьменко, Александр Жигалкин) [2010, комедия, мелодрама, DVDRip] pb.wtf

Гаражи через торрент pb.wtf

Размер: 11.63 GB | Добавлен: 3 года 5 мес. назад | Торрент скачан:99 раз
Скачать  

25-04-2017 20:41 Гаражи Скачать торрент  

Гаражи (1-17 серии из 17)
Год выпуска: 2010
Страна: Россия
Жанр: комедия, мелодрама
Всего серий: 17
Продолжительность: 17 х ~ 00:50:00
Субтитры: отсутствуют

Режиссер: Юрий Кузьменко, Александр Жигалкин

rating

В ролях:

Роман Мадянов, Михаил Крылов, Сергей Костылев, Александр Ильин, Анна Галинова, Александра Виноградова, Антонина Чижикова, Анатолий Гущин, Андрей Денисов и др.

Описание:

Сторож-балагур гаражного кооператива, с удовольствием рассказывает гостям забавные истории из своей жизни. Рассказывает самым разным людям, которые заходят к нему в сторожку. По характеру он такой философ, с непонятным запутанным прошлым. Он специалист во многих областях. И по ходу фильма становится видно, что он разбирается и в искусстве, философии, кино, умеет дельно высказать свое мнение. И вот он рассказывает гостям разные истории. И каждая история - это отдельная серия, со своим началом, кульминацией и развязкой. А объединяет все эти истории главный герой. И ироническое отношение ко всем этим событиям.

Качество: DVDRip
Формат: AVI
Видео кодек: XviD
Аудио кодек: AC3

Видео: 720x400 (1.80:1), 25 fps, XviD build 50 ~1690 kbps avg, 0.234 bit/pixel
Аудио#1: 48 kHz, AC3 Dolby Digital, 2/0 (L,R) ch, ~192 kbps
скриншот   скриншот   скриншот   скриншот  

Общее
Полное имя : D:\Garazhy.2010.XviD.DVDRip.ExKinoRay\Garazhy.2010.(01.seriya).XviD.DVDRip.ExKinoRay.avi
Формат : AVI
Формат/Информация : Audio Video Interleave
Размер файла : 700 Мбайт
Продолжительность : 51 м. 52 с.
Общий поток : 1888 Кбит/сек
Программа кодирования : VirtualDubMod 1.5.10.2 (build 2540/release)
Библиотека кодирования : VirtualDubMod build 2540/release

Видео
Идентификатор : 0
Формат : MPEG-4 Visual
Профиль формата : Advanced Simple@L5
Параметр BVOP формата : 1
Параметр QPel формата : Нет
Параметр GMC формата : Без точки перехода
Параметр матрицы формата : Выборочная
Идентификатор кодека : XVID
Идентификатор кодека/Подсказка : XviD
Продолжительность : 51 м. 52 с.
Битрейт : 1686 Кбит/сек
Ширина : 720 пикселей
Высота : 400 пикселей
Соотношение сторон : 16:9
Частота кадров : 25,000 кадров/сек
Цветовое пространство : YUV
Субдискретизация насыщенности : 4:2:0
Битовая глубина : 8 бит
Тип развёртки : Прогрессивная
Метод сжатия : С потерями
Бит/(Пиксели*Кадры) : 0.234
Размер потока : 625 Мбайт (89%)
Библиотека кодирования : XviD 1.2.1 (UTC 2008-12-04)

Аудио
Идентификатор : 1
Формат : AC-3
Формат/Информация : Audio Coding 3
Расширение режима : CM (complete main)
Параметр Endianness формата : Big
Идентификатор кодека : 2000
Продолжительность : 51 м. 52 с.
Вид битрейта : Постоянный
Битрейт : 192 Кбит/сек
Каналы : 2 канала
Расположение каналов : Front: L R
Частота : 48,0 КГц
Частота кадров : 31,250 кадров/сек (1536 spf)
Метод сжатия : С потерями
Размер потока : 71,2 Мбайт (10%)
Выравнивание : Разделение по промежуткам
Продолжительность промежутка : 40 мс. (1,00 видеокадр)
Время предзагрузки промежутка : 500 мс.

pb.wtf



Скачать Гаражи через торрент http://rudb.org/img/2017_04/i58ff3f1f551db.jpg Скачать фильм Гаражи через торрент бесплантно в хорошем качестве Описание: Сторож-балагур гаражного кооператива, с удовольствием рассказывает гостям забавные истории из своей жизни. Рассказывает самым ... 10 10 5
Торрент: Зарегистрирован [2017-04-25 20:41] · скачан: 99 раз
Статус: √ проверено
Размер: 11.63 GB
Как cкачать? Как скачать Гаражи через торрент | qTorrent

28-11-2019 20:33  

Отключить всю рекламу на сайте

    Дорогой пользователь! Огромная просьба, поблагодарите релизера, оцените раздачу и оставьте свои комментарий, если Вы скачали Гаражи через торрент бесплатно! Внесите свою лепту в развитие PiratBit!
    Комментировать посты могут только пользователи прошедшие не сложную регистрацию
    Показать сообщения:    

    Гаражи через торрент
    Скачать бесплатно Гаражи
    Гаражи скачать торрент
    Гаражи смотреть онлайн
    Cкачать фильм Гаражи бесплатно
    Гаражи скачать торрент в хорошем качестве
    Гаражи смотреть онлайн бесплатно в хорошем качестве


    Вы не можете начинать темы
    Вы не можете отвечать на сообщения
    Вы не можете редактировать свои сообщения
    Вы не можете удалять свои сообщения
    Вы не можете голосовать в опросах
    Вы не можете прикреплять файлы к сообщениям
    Вы можете скачивать файлы