Всегда рабочее зеркало без VPN и Proxy просто перед .vidak.icu напиши любое слово или цифру, Пример http://vzr9.vidak.icu

MVO

2 сезон

1 сезон

1

1 сезон

iTunes

2 сезон

13

1 сезон

Распродажа

pack

Рекомендуем

Пиратка

30

ВАЖНО

RePack

MK11

RePack

jed

RePack

fifa19

RePack

RDR2

RePack

NEED FOR SPEED™ PAYBACK

Кинопоиск HD

6 сезон

 Острые козырьки 6 сезон

Все сериалы

все сериалы на PB.wtf

RePack

FAR CRY 5

Anonymous, нам критически не хватает 5601 руб. на оплату серверов и переферии за Апрель, помоги нам пожалуйста, вся надежда только на тебя. В благодарность мы отключим тебе всю рекламу на сайте!

×
  
Magnet ссылка

Мы продолжаем / We Go On (Джесси Холлэнд) [2016 г., Ужасы, триллер, драма, WEB-DLRip, Любительский (многоголосый) (Синема УС)] pb.wtf

Мы продолжаем через торрент pb.wtf

Размер: 1.36 GB | Добавлен: 5 лет назад | Торрент скачан:478 раз
Смотреть онлайн Мы продолжаем | Скачать    Ребята, помогите собрать деньги на оплату серверов!!!

26-04-2017 03:44 Мы продолжаем Скачать торрент  

Мы продолжаем / We Go On
Год выпуска: 2016
Страна: США / Alpas Entertainment
Жанр: Ужасы, триллер, драма
Продолжительность: 01:28:54
Перевод: Любительский (многоголосый)(Синема УС)
Субтитры: нет

Режиссер: Джесси Холлэнд

rating

В ролях: Дэвид Бикфорд, Кэссиди Фриман, Кларк Фриман, Эдвин Гарсиа II, Джон Гловер, Лаура Хейслер, Клем Джеффрис

Описание: Майлз Гриссом до ужаса боится смерти. Он предлагает денежное вознаграждение любому, кто докажет ему существование загробной жизни — покажет привидение, ангела, демона или чёрта в ступе. Парень решает встретиться с тремя претендентами на награду — учёным, медиумом и предпринимателем, и в сопровождении чрезвычайно заботливой мамы он пускается в необычное путешествие по Лос-Анджелесу.

Доп. информация: Реклама есть

Качество: WEB-DLRip
Формат: AVI
Видео кодек: XviD
Аудио кодек: AC3
Видео: 720x400 (1.80:1), 23.976 fps, XviD , ~1800 kbps
Аудио: AC3, 2 ch, 384 kbps,48.0 KHz




General
Complete name : H:\релизы.торрентфайл\We.Go.On.2016.P.WEB-DLRip.14OOMB.avi
Format : AVI
Format/Info : Audio Video Interleave
File size : 1.36 GiB
Duration : 1h 28mn
Overall bit rate : 2 194 Kbps
Writing application : VirtualDubMod 1.5.10.2 (build 2540/release)
Writing library : VirtualDubMod build 2540/release

Video
ID : 0
Format : MPEG-4 Visual
Format profile : Advanced Simple@L5
Format settings, BVOP : 2
Format settings, QPel : No
Format settings, GMC : No warppoints
Format settings, Matrix : Default (MPEG)
Codec ID : XVID
Codec ID/Hint : XviD
Duration : 1h 28mn
Bit rate : 1 801 Kbps
Width : 720 pixels
Height : 400 pixels
Display aspect ratio : 16:9
Frame rate : 23.976 fps
Color space : YUV
Chroma subsampling : 4:2:0
Bit depth : 8 bits
Scan type : Progressive
Compression mode : Lossy
Bits/(Pixel*Frame) : 0.261
Stream size : 1.12 GiB (82%)
Writing library : XviD 1.2.1 (UTC 2008-12-04)

Audio
ID : 1
Format : AC-3
Format/Info : Audio Coding 3
Mode extension : CM (complete main)
Format settings, Endianness : Big
Codec ID : 2000
Duration : 1h 28mn
Bit rate mode : Constant
Bit rate : 384 Kbps
Channel(s) : 2 channels
Channel positions : Front: L R
Sampling rate : 48.0 KHz
Bit depth : 16 bits
Compression mode : Lossy
Stream size : 244 MiB (17%)
Alignment : Split accross interleaves
Interleave, duration : 42 ms (1.00 video frame)
Interleave, preload duration : 500 ms

pb.wtf



Скачать Мы продолжаем через торрент http://i91.fastpic.ru/big/2017/0426/7f/8dd46442e5d099ff83287dae74d5b57f.jpg Скачать, смотреть онлайн Мы продолжаем бесплантно в хорошем качестве Описание: Майлз Гриссом до ужаса боится смерти. Он предлагает денежное вознаграждение любому, кто докажет ему существование загробной жизни ... 8.6 10 8
Торрент: Зарегистрирован [2017-04-26 03:44] · скачан: 478 раз
Статус: T временная
Размер: 1.36 GB
Как cкачать? Как скачать Мы продолжаем через торрент | UTorrent

% Раздел Тема Автор DL S | L
Фильмы без перевода [ 24.05 GB ] Мы продолжаем / We Go On [2016 BD Remux] [Оригинал-ENG] smaster Скачать
1 | 0
T Фильмы 2016 (Звук TS, Cam, VO, DVO) [ 743 MB ] Мы продолжаем / We Go On [2016 HDRip-AVC] VO [Xixidok] bober100 Скачать
1 | 0

28-11-2019 20:33  

Отключить всю рекламу на сайте

26-04-2017 04:29 Мы продолжаем Скачать торрент  

вроде фабула интересная, надо глянуть.
зы чета трейлер на кинопоиске какой-то вялый, уже и не знаю стоит ли качать. кто глянул, отпишите плзpb.wtf



26-04-2017 05:13 Мы продолжаем Скачать торрент  

tamburetko писал(а):

вроде фабула интересная, надо глянуть.
зы чета трейлер на кинопоиске какой-то вялый, уже и не знаю стоит ли качать. кто глянул, отпишите плз

Чем-то напоминает не очень удачную попытку кальки идеи фильма "1408". Если время свободное есть, то глянуть можно.pb.wtf



    Дорогой пользователь! Огромная просьба, поблагодарите релизера, оцените раздачу и оставьте свои комментарий, если Вы скачали Мы продолжаем через торрент бесплатно!
    Комментировать посты могут только пользователи прошедшие не сложную регистрацию
    Показать сообщения:    

    Мы продолжаем через торрент
    Скачать бесплатно Мы продолжаем
    Мы продолжаем скачать торрент
    Мы продолжаем смотреть онлайн
    Cкачать фильм Мы продолжаем бесплатно
    Мы продолжаем скачать торрент в хорошем качестве
    Мы продолжаем смотреть онлайн бесплатно в хорошем качестве


    Вы не можете начинать темы
    Вы не можете отвечать на сообщения
    Вы не можете редактировать свои сообщения
    Вы не можете удалять свои сообщения
    Вы не можете голосовать в опросах
    Вы не можете прикреплять файлы к сообщениям
    Вы можете скачивать файлы