Ссылка на приватное зеркало нашего сайта всего за 1$. Внимание количество ограничено!!!

2 сезон

iTunes

1 сезон

1

iTunes

iTunes

iTunes

1 сезон

RePack

30

ИГРА 18+

pack

ВАЖНО

!!Акция!!

Alien_RageХит недели

RePack

MK11
pack

Забери бонус

RePack

jed

!!Акция!!

Alien_Rage

RePack

fifa19

RePack

Assassins Creed: Odyssey

RePack

NEED FOR SPEED™ PAYBACK

4 сезон

9 сезон

Бесстыжие 9 сезон

Все сериалы

все сериалы на PB.wtf

RePack

FAR CRY 5
  

В конце туннеля / Al final del tunel (Родриго Гранде) [2016, триллер, криминал, BDRip 720p] MVO [@MUZOBOZ@] (Без рекламы) - ExKinoRay pb.wtf

В конце туннеля через торрент pb.wtf

Размер: 3.32 GB | Добавлен: 3 года 5 мес. назад | Торрент скачан:414 раз
Скачать  

26-04-2017 04:41 В конце туннеля Скачать торрент  

Информация о фильме
Название: В конце туннеля
Оригинальное название: Al final del túnel
Год выпуска: 2016
Страна: Аргентина, Испания
Студия: Haddock Films, Televisión Española (TVE), Tornasol Films
Жанр: Триллер, криминал
Продолжительность: 02:00:23
Перевод: Любительский многоголосый [@MUZOBOZ@]
Субтитры: Русские (full), испанские (SDH)
Режиссер: Родриго Гранде
В ролях: Леонардо Сбараглиа, Пабло Эчарри, Клара Лаго, Уолтер Донато, Серджо Феррейро, Хавьер Годино, Федерико Луппи

Описание: Банда грабителей пытается сорвать большой куш, построив подземный туннель под банком. Происходящее привлекает внимание Хоакина, парализованного человека в инвалидном кресле, проживающего в соседнем доме. Но он совсем не торопится разоблачить гангстеров, так как считает, что у него появился шанс.

rating

Файл
Качество: BDRip 720p | исх. Al.final.del.tunel.2016.BDRemux.1080p.NovaLan |
Видео: AVC, 1280x536 (16:9), 3120 kbps, 23.976 fps, 0,190 bpp
Аудио1: 48 kHz, AC3, 2.0, 192 Kbps | RUS |
Аудио2: 48 kHz, AC3, 5.1, 640 Kbps | SPA |
General
Unique ID : 203135972034078607880039642585073795337 (0x98D290AC820FD78E8FCCDA51BC6D4109)
Complete name : D:\Al.final.del.tunel.2016.MVO.BDRip.720p.ExKinoRay.mkv
Format : Matroska
Format version : Version 2
File size : 3.32 GiB
Duration : 2 h 0 min
Overall bit rate : 3 949 kb/s
Movie name : Al final del tunel (2016) from ExKinoRay
Encoded date : UTC 2017-04-26 01:55:58
Writing application : mkvmerge v5.8.0 ('No Sleep / Pillow') built on Sep 2 2012 15:37:04
Writing library : libebml v1.2.3 + libmatroska v1.3.0

Video
ID : 1
Format : AVC
Format/Info : Advanced Video Codec
Format profile : High@L4.1
Format settings, CABAC : Yes
Format settings, ReFrames : 12 frames
Codec ID : V_MPEG4/ISO/AVC
Duration : 2 h 0 min
Bit rate : 3 120 kb/s
Width : 1 280 pixels
Height : 536 pixels
Display aspect ratio : 2.40:1
Frame rate mode : Constant
Frame rate : 23.976 (24000/1001) FPS
Color space : YUV
Chroma subsampling : 4:2:0
Bit depth : 8 bits
Scan type : Progressive
Bits/(Pixel*Frame) : 0.190
Stream size : 2.55 GiB (77%)
Title : Enigma
Writing library : x264 core 144 r2525 40bb568
Encoding settings : cabac=1 / ref=12 / deblock=1:-2:-2 / analyse=0x3:0x113 / me=umh / subme=10 / psy=1 / psy_rd=1.05:0.08 / mixed_ref=1 / me_range=32 / chroma_me=1 / trellis=2 / 8x8dct=1 / cqm=0 / deadzone=21,11 / fast_pskip=1 / chroma_qp_offset=-3 / threads=12 / lookahead_threads=3 / sliced_threads=0 / nr=0 / decimate=0 / interlaced=0 / bluray_compat=0 / constrained_intra=0 / bframes=10 / b_pyramid=2 / b_adapt=2 / b_bias=0 / direct=3 / weightb=1 / open_gop=0 / weightp=2 / keyint=240 / keyint_min=23 / scenecut=40 / intra_refresh=0 / rc_lookahead=40 / rc=2pass / mbtree=0 / bitrate=3120 / ratetol=1.0 / qcomp=0.60 / qpmin=0 / qpmax=51 / qpstep=4 / cplxblur=20.0 / qblur=0.5 / vbv_maxrate=50000 / vbv_bufsize=62500 / nal_hrd=none / filler=0 / ip_ratio=1.40 / pb_ratio=1.30 / aq=3:0.90
Language : English
Default : Yes
Forced : No
Color range : Limited
Color primaries : BT.709
Transfer characteristics : BT.709
Matrix coefficients : BT.709

Audio #1
ID : 2
Format : AC-3
Format/Info : Audio Coding 3
Mode extension : CM (complete main)
Format settings, Endianness : Big
Codec ID : A_AC3
Duration : 2 h 0 min
Bit rate mode : Constant
Bit rate : 192 kb/s
Channel(s) : 2 channels
Channel positions : Front: L R
Sampling rate : 48.0 kHz
Frame rate : 31.250 FPS (1536 spf)
Compression mode : Lossy
Stream size : 165 MiB (5%)
Title : MVO
Language : Russian
Default : Yes
Forced : No

Audio #2
ID : 3
Format : AC-3
Format/Info : Audio Coding 3
Mode extension : CM (complete main)
Format settings, Endianness : Big
Codec ID : A_AC3
Duration : 2 h 0 min
Bit rate mode : Constant
Bit rate : 640 kb/s
Channel(s) : 6 channels
Channel positions : Front: L C R, Side: L R, LFE
Sampling rate : 48.0 kHz
Frame rate : 31.250 FPS (1536 spf)
Compression mode : Lossy
Stream size : 551 MiB (16%)
Language : Spanish
Default : No
Forced : No

Text #1
ID : 4
Format : UTF-8
Codec ID : S_TEXT/UTF8
Codec ID/Info : UTF-8 Plain Text
Language : Russian
Default : No
Forced : No

Text #2
ID : 5
Format : UTF-8
Codec ID : S_TEXT/UTF8
Codec ID/Info : UTF-8 Plain Text
Language : Spanish
Default : No
Forced : No

Menu
00:00:00.000 : en:00:00:00.000
00:09:06.296 : en:00:09:06.296
00:17:22.750 : en:00:17:22.750
00:24:26.130 : en:00:24:26.130
00:30:44.843 : en:00:30:44.843
00:39:58.895 : en:00:39:58.895
00:45:13.710 : en:00:45:13.710
00:52:21.930 : en:00:52:21.930
01:04:19.522 : en:01:04:19.522
01:11:23.779 : en:01:11:23.779
01:25:56.902 : en:01:25:56.902
01:34:39.256 : en:01:34:39.256
01:48:56.697 : en:01:48:56.697
01:56:15.886 : en:01:56:15.886
02:00:22.912 : en:02:00:22.912
Релиз от:

Автор релиза: pb.wtf



Скачать В конце туннеля через торрент http://i83.fastpic.ru/big/2016/1210/92/79c97a79f1e04a02ca4b4471eb646092.jpg Скачать фильм В конце туннеля через торрент бесплантно в хорошем качестве Описание: Банда грабителей пытается сорвать большой куш, построив подземный туннель под банком. Происходящее привлекает внимание Хоакина, ... 9.8 10 10
Info! Золотая раздача, скачанное не засчитывается.
Торрент: Зарегистрирован [2017-04-26 04:41] · скачан: 414 раз
Статус: T временная
Размер: 3.32 GB
Как cкачать? Как скачать В конце туннеля через торрент | qTorrent

28-11-2019 20:33  

Отключить всю рекламу на сайте

    Дорогой пользователь! Огромная просьба, поблагодарите релизера, оцените раздачу и оставьте свои комментарий, если Вы скачали В конце туннеля через торрент бесплатно! Внесите свою лепту в развитие PiratBit!
    Комментировать посты могут только пользователи прошедшие не сложную регистрацию
    Показать сообщения:    

    В конце туннеля через торрент
    Скачать бесплатно В конце туннеля
    В конце туннеля скачать торрент
    В конце туннеля смотреть онлайн
    Cкачать фильм В конце туннеля бесплатно
    В конце туннеля скачать торрент в хорошем качестве
    В конце туннеля смотреть онлайн бесплатно в хорошем качестве


    Вы не можете начинать темы
    Вы не можете отвечать на сообщения
    Вы не можете редактировать свои сообщения
    Вы не можете удалять свои сообщения
    Вы не можете голосовать в опросах
    Вы не можете прикреплять файлы к сообщениям
    Вы можете скачивать файлы