1 сезон

3 сезон

iTunes

1

Line

MVO

iTunes

13

1 сезон

RePack

30

Deluxe

pack

Лицензия

ВАЖНО

ИГРА 18+

pack

RePack

MK11

RePack

jed

RePack

fifa19

RePack

RDR2

RePack

NEED FOR SPEED™ PAYBACK

4 сезон

9 сезон

Бесстыжие 9 сезон

Все сериалы

все сериалы на PB.wtf

RePack

FAR CRY 5

Anonymous, добрый вечер, мы катастрофически не успеваем собрать деньги на оплату серверов, помогите нам пожалуйста 5,10,15р., для нас важна любая помощь . В качестве благодарности мы отключим Вам всю рекламу на сайте (укажите свой ник в строку Ваше имя)!

×
  
Magnet ссылка

Обитель зла: Последняя глава / Resident Evil: The Final Chapter (Пол У. С. Андерсон) [2016, ужасы, фантастика, боевик, BDRip 720p от R.G.Resident] Дубляж - [Лицензия / iTunes] pb.wtf

Обитель зла: Последняя глава через торрент pb.wtf

Раздают: 1 [ 0 KB/s ]
Размер: 3.76 GB | Добавлен: 4 года 3 мес. назад | Торрент скачан:354 раза
Скачать  

27-04-2017 01:41 Обитель зла: Последняя глава Скачать торрент  

Обитель зла: Последняя глава / Resident Evil: The Final Chapter
««The beginning of the end»»

Год выпуска: 2016
Страна: США, Германия, Франция, Великобритания, Япония, Канада, ЮАР, Австралия
Жанр: ужасы, фантастика, боевик, триллер
Продолжительность: 01:46:40
Перевод: Дубляж - [Лицензия / iTunes]
Субтитры: русские (FORCED), русские (FULL), английские (FULL),
Режиссер: Пол У. С. Андерсон
В ролях:

Милла Йовович (Alice / Alicia Marcus), Иэн Глен (Dr. Isaacs), Эли Лартер (Claire Redfield), Шон Робертс (Wesker), Оуэн Мэкен (Doc), Фрайзер Джеймс (Razor), Руби Роуз (Abigail), Уильям Леви (Christian), Рола (Cobalt), Эвер Андерсон (Young Alicia / Red Queen), Марк Симпсон (James Marcus), Милтон Шорр (Thin Man)
Описание:
Действия фильма разворачиваются с того момента, на котором закончилась предыдущая часть. После того как Вескер предал Элис в Вашингтоне, конец истории человечества стал еще ближе. Элис - последняя надежда на спасение мира. Она должна вернуться к точке отсчета, туда, где все и началось - город Раккун-Сити, где корпорация «Амбрелла» готовится к финальной атаке по тем, кому удалось выжить.
Мировая премьера: 13 декабря 2016

MPAA: R - Лицам до 17 лет обязательно присутствие взрослого
Качество: BDRip 720p Rip by
Формат: MKV
Видео: AVC, 1280x534 (2.40:1), 4021 kbps, 23,976 fps, 0,245 bpp
Аудио №1: русский / AC3 / 5.1 / 48 kHz / 384 kbps /
Аудио №2: английский / AC3 / 5.1 / 48 kHz / 640 kbps /
x264 [info]: frame I:1295 Avg QP:11.05 size:100679
x264 [info]: frame P:48264 Avg QP:15.04 size: 33620
x264 [info]: frame B:103897 Avg QP:16.15 size: 14085

General
Unique ID : 196647262796019866477266596306693602608 (0x93F0E29BD0E7EC3EA28BB74F807B3D30)
Complete name : D:\download\Resident.Evil.The.Final.Chapter.2016.BDRip 720р by schultz R.G.Resident.mkv
Format : Matroska
Format version : Version 4 / Version 2
File size : 3.76 GiB
Duration : 1 h 46 min
Overall bit rate : 5 046 kb/s
Encoded date : UTC 2017-04-27 01:16:52
Writing application : mkvmerge v8.9.0 ('Father Daughter') 64bit
Writing library : libebml v1.3.3 + libmatroska v1.4.4

Video
ID : 1
Format : AVC
Format/Info : Advanced Video Codec
Format profile : High@L4.1
Format settings, CABAC : Yes
Format settings, ReFrames : 12 frames
Codec ID : V_MPEG4/ISO/AVC
Duration : 1 h 46 min
Bit rate : 4 021 kb/s
Width : 1 280 pixels
Height : 534 pixels
Display aspect ratio : 2.40:1
Frame rate mode : Constant
Frame rate : 23.976 (23976/1000) FPS
Color space : YUV
Chroma subsampling : 4:2:0
Bit depth : 8 bits
Scan type : Progressive
Bits/(Pixel*Frame) : 0.245
Stream size : 3.00 GiB (80%)
Writing library : x264 core 146 r2538 121396c
Encoding settings : cabac=1 / ref=12 / deblock=1:-3:-3 / analyse=0x3:0x113 / me=umh / subme=11 / psy=1 / psy_rd=1.00:0.00 / mixed_ref=1 / me_range=48 / chroma_me=1 / trellis=2 / 8x8dct=1 / cqm=0 / deadzone=21,11 / fast_pskip=0 / chroma_qp_offset=-2 / threads=12 / lookahead_threads=3 / sliced_threads=0 / nr=0 / decimate=0 / interlaced=0 / bluray_compat=0 / constrained_intra=0 / bframes=11 / b_pyramid=2 / b_adapt=2 / b_bias=0 / direct=3 / weightb=1 / open_gop=0 / weightp=2 / keyint=240 / keyint_min=23 / scenecut=40 / intra_refresh=0 / rc_lookahead=40 / rc=2pass / mbtree=1 / bitrate=4021 / ratetol=1.0 / qcomp=0.60 / qpmin=0 / qpmax=69 / qpstep=4 / cplxblur=20.0 / qblur=0.5 / vbv_maxrate=50000 / vbv_bufsize=62500 / nal_hrd=none / filler=0 / ip_ratio=1.40 / aq=1:1.00
Language : English
Default : Yes
Forced : No

Audio #1
ID : 2
Format : AC-3
Format/Info : Audio Coding 3
Mode extension : CM (complete main)
Format settings, Endianness : Big
Codec ID : A_AC3
Duration : 1 h 46 min
Bit rate mode : Constant
Bit rate : 384 kb/s
Channel(s) : 6 channels
Channel positions : Front: L C R, Side: L R, LFE
Sampling rate : 48.0 kHz
Frame rate : 31.250 FPS (1536 spf)
Compression mode : Lossy
Stream size : 293 MiB (8%)
Language : Russian
Default : Yes
Forced : No

Audio #2
ID : 3
Format : AC-3
Format/Info : Audio Coding 3
Mode extension : CM (complete main)
Format settings, Endianness : Big
Codec ID : A_AC3
Duration : 1 h 46 min
Bit rate mode : Constant
Bit rate : 640 kb/s
Channel(s) : 6 channels
Channel positions : Front: L C R, Side: L R, LFE
Sampling rate : 48.0 kHz
Frame rate : 31.250 FPS (1536 spf)
Compression mode : Lossy
Stream size : 488 MiB (13%)
Language : English
Default : No
Forced : No

Text #1
ID : 4
Format : UTF-8
Codec ID : S_TEXT/UTF8
Codec ID/Info : UTF-8 Plain Text
Duration : 1 h 45 min
Bit rate : 1 b/s
Count of elements : 15
Stream size : 922 Bytes (0%)
Title : FORCED
Language : Russian
Default : Yes
Forced : No

Text #2
ID : 5
Format : UTF-8
Codec ID : S_TEXT/UTF8
Codec ID/Info : UTF-8 Plain Text
Duration : 1 h 38 min
Bit rate : 50 b/s
Count of elements : 735
Stream size : 36.4 KiB (0%)
Title : FULL
Language : Russian
Default : No
Forced : No

Text #3
ID : 6
Format : UTF-8
Codec ID : S_TEXT/UTF8
Codec ID/Info : UTF-8 Plain Text
Duration : 1 h 45 min
Bit rate : 31 b/s
Count of elements : 818
Stream size : 24.3 KiB (0%)
Title : FULL
Language : English
Default : No
Forced : No

Menu
00:00:00.000 : en:Chapter 01
00:05:39.339 : en:Chapter 02
00:11:18.177 : en:Chapter 03
00:17:00.102 : en:Chapter 04
00:22:36.146 : en:Chapter 05
00:27:21.640 : en:Chapter 06
00:33:38.474 : en:Chapter 07
00:40:47.820 : en:Chapter 08
00:46:36.126 : en:Chapter 09
00:53:18.778 : en:Chapter 10
01:03:18.669 : en:Chapter 11
01:10:47.826 : en:Chapter 12
01:15:37.574 : en:Chapter 13
01:22:57.806 : en:Chapter 14
01:28:32.765 : en:Chapter 15
01:35:07.159 : en:Chapter 16

pb.wtf



Скачать Обитель зла: Последняя глава через торрент http://i77.fastpic.ru/big/2016/0417/a7/808a646271c761f7c7d87df3d366b3a7.png Скачать фильм Обитель зла: Последняя глава через торрент бесплантно в хорошем качестве Описание: Действия фильма разворачиваются с того момента, на котором закончилась предыдущая часть. После того как Вескер предал Элис в ... 10 10 6
Info! Золотая раздача, скачанное не засчитывается.
Торрент: Зарегистрирован [2017-04-27 01:41] · скачан: 354 раз
Статус: √ проверено
Размер: 3.76 GB
Как cкачать? Как скачать Обитель зла: Последняя глава через торрент | UTorrent

% Раздел Тема Автор DL S | L
Фильмы [HD 720p, 1080p] (Хороший звук DUB, MVO) [ 5.55 GB ] Обитель зла: Последняя глава / Resident Evil: The Final Chapter [2016 BDRip-HEVC 1080p ] DUB [] bober100 Скачать
2 | 0
3D Фильмы [ 9.6 GB ] Обитель зла: Последняя глава 3Д / Resident Evil: The Final Chapter 3D [2016 BDRip 1080p] [Half OverUnder / Вертикальная анаморфная стереопара] DUB [] bober100 Скачать
1 | 0
Фильмы [HD 720p, 1080p] (Хороший звук DUB, MVO) [ 7.56 GB ] Обитель зла: Последняя глава / Resident Evil: The Final Chapter [2016 BDRip 1080p] - -Lexx- Скачать
2 | 0
Ultra HD (UHD: 2K, 4K, 8K) — видео сверхвысокой чёткости [ 53.79 GB ] Обитель зла: Последняя глава / Resident Evil: The Final Chapter [2016 UHD Blu-ray CEE 2160p] [] sheker187 Скачать
1 | 0
Ultra HD (UHD: 2K, 4K, 8K) — видео сверхвысокой чёткости [ 43.36 GB ] Обитель зла: Последняя глава / Resident Evil: The Final Chapter [2016 UHD BDRemux 2160p] DUB [] bober100 Скачать
1 | 0
Фильмы [HD 720p, 1080p] (Хороший звук DUB, MVO) [ 3.93 GB ] Обитель зла: Последняя глава / Resident Evil: The Final Chapter [2016 BDRip 720p] DUB [] bober100 Скачать
1 | 0
Фильмы (Blu-ray, BD-Remux, HDDVD) [ 17.53 GB ] Обитель зла: Последняя глава / Resident Evil: The Final Chapter [2016 BD Remux 1080p] DUB [] bober100 Скачать
1 | 0

28-11-2019 20:33  

Отключить всю рекламу на сайте



    Дорогой пользователь! Огромная просьба, поблагодарите релизера, оцените раздачу и оставьте свои комментарий, если Вы скачали Обитель зла: Последняя глава через торрент бесплатно! Внесите свою лепту в развитие PiratBit!
    Комментировать посты могут только пользователи прошедшие не сложную регистрацию
    Показать сообщения:    

    Обитель зла: Последняя глава через торрент
    Скачать бесплатно Обитель зла: Последняя глава
    Обитель зла: Последняя глава скачать торрент
    Обитель зла: Последняя глава смотреть онлайн
    Cкачать фильм Обитель зла: Последняя глава бесплатно
    Обитель зла: Последняя глава скачать торрент в хорошем качестве
    Обитель зла: Последняя глава смотреть онлайн бесплатно в хорошем качестве


    Вы не можете начинать темы
    Вы не можете отвечать на сообщения
    Вы не можете редактировать свои сообщения
    Вы не можете удалять свои сообщения
    Вы не можете голосовать в опросах
    Вы не можете прикреплять файлы к сообщениям
    Вы можете скачивать файлы