1 сезон

3 сезон

iTunes

1

Line

MVO

iTunes

13

1 сезон

RePack

30

Deluxe

pack

Лицензия

ВАЖНО

ИГРА 18+

pack

RePack

MK11

RePack

jed

RePack

fifa19

RePack

RDR2

RePack

NEED FOR SPEED™ PAYBACK

4 сезон

9 сезон

Бесстыжие 9 сезон

Все сериалы

все сериалы на PB.wtf

RePack

FAR CRY 5

Anonymous, доброй ночи, мы катастрофически не успеваем собрать деньги на оплату серверов, помогите нам пожалуйста 5,10,15р., для нас важна любая помощь . В качестве благодарности мы отключим Вам всю рекламу на сайте (укажите свой ник в строку Ваше имя)!

×
  
Magnet ссылка

Викинг (Андрей Кравчук) [2016, история, драма, BDRip-AVC от R.G.Resident] [Лицензия] / GER Transfer / Расширенная версия pb.wtf

Викинг через торрент pb.wtf

Раздают: 1 [ 0 KB/s ]
Размер: 3.42 GB | Добавлен: 4 года 3 мес. назад | Торрент скачан:237 раз
Скачать  

27-04-2017 07:01 Викинг Скачать торрент  

Викинг
««Тебе нужно увидеть, чтобы поверить»»

Год выпуска: 2016
Страна: Россия
Жанр: история, драма
Продолжительность: 02:22:40
Перевод: Не требуется [Лицензия]
Субтитры: русские (forced)
Режиссер: Андрей Кравчук
В ролях:

Данила Козловский (Владимир), Светлана Ходченкова (Ирина), Максим Суханов (Свенельд), Игорь Петренко (Варяжко), Андрей Смоляков (Роговолд), Владимир Епифанцев (Федор), Александра Бортич (Рогнеда), Кирилл Плетнёв (Олег), Александр Устюгов (Ярополк), Ростислав Бершауэр (Блуд), Павел Делонг (Анастас), Алексей Демидов (Самоха)
Описание:
Раннее Средневековье. Время тяжелых мечей и темных законов крови. Правящий род в раздоре. Вина за случайную смерть брата легла на Великого Князя. По закону мстить ему должен младший брат - бастард. За отказ убивать он заплатит всем, что у него было, потому что «для мира нужно больше мечей, чем для войны».
Мировая премьера: 29 декабря 2016

Возраст: 18+ (зрителям, достигшим 18 лет. Запрещено для детей)
Качество: BDRip-AVC Rip by
Формат: MKV
Видео: AVC, 1024x426 (2.40:1), 2996 kbps, 23,976 fps, 0,286 bpp
Аудио: русский / AC3 / 5.1 / 48 kHz / 448 kbps /
General
Unique ID : 219440432414229994546818483340891835839 (0xA516B0A280880958A439F5F4B5F6CDBF)
Complete name : D:\download\Viking.2016.BDRip-AVC by schultz R.G.Resident.mkv
Format : Matroska
Format version : Version 4 / Version 2
File size : 3.42 GiB
Duration : 2 h 22 min
Overall bit rate : 3 433 kb/s
Encoded date : UTC 2017-04-27 06:40:55
Writing application : mkvmerge v8.9.0 ('Father Daughter') 64bit
Writing library : libebml v1.3.3 + libmatroska v1.4.4

Video
ID : 1
Format : AVC
Format/Info : Advanced Video Codec
Format profile : High@L4.1
Format settings, CABAC : Yes
Format settings, ReFrames : 12 frames
Codec ID : V_MPEG4/ISO/AVC
Duration : 2 h 22 min
Bit rate : 2 996 kb/s
Width : 1 024 pixels
Height : 426 pixels
Display aspect ratio : 2.40:1
Frame rate mode : Constant
Frame rate : 23.976 (23976/1000) FPS
Color space : YUV
Chroma subsampling : 4:2:0
Bit depth : 8 bits
Scan type : Progressive
Bits/(Pixel*Frame) : 0.286
Stream size : 2.97 GiB (87%)
Writing library : x264 core 146 r2538 121396c
Encoding settings : cabac=1 / ref=12 / deblock=1:-3:-3 / analyse=0x3:0x113 / me=umh / subme=11 / psy=1 / psy_rd=1.00:0.00 / mixed_ref=1 / me_range=48 / chroma_me=1 / trellis=2 / 8x8dct=1 / cqm=0 / deadzone=21,11 / fast_pskip=0 / chroma_qp_offset=-2 / threads=12 / lookahead_threads=3 / sliced_threads=0 / nr=0 / decimate=0 / interlaced=0 / bluray_compat=0 / constrained_intra=0 / bframes=11 / b_pyramid=2 / b_adapt=2 / b_bias=0 / direct=3 / weightb=1 / open_gop=0 / weightp=2 / keyint=240 / keyint_min=23 / scenecut=40 / intra_refresh=0 / rc_lookahead=40 / rc=2pass / mbtree=1 / bitrate=2996 / ratetol=1.0 / qcomp=0.60 / qpmin=0 / qpmax=69 / qpstep=4 / cplxblur=20.0 / qblur=0.5 / vbv_maxrate=50000 / vbv_bufsize=62500 / nal_hrd=none / filler=0 / ip_ratio=1.40 / aq=1:1.00
Language : English
Default : Yes
Forced : No

Audio
ID : 2
Format : AC-3
Format/Info : Audio Coding 3
Mode extension : CM (complete main)
Format settings, Endianness : Big
Codec ID : A_AC3
Duration : 2 h 22 min
Bit rate mode : Constant
Bit rate : 448 kb/s
Channel(s) : 6 channels
Channel positions : Front: L C R, Side: L R, LFE
Sampling rate : 48.0 kHz
Frame rate : 31.250 FPS (1536 spf)
Compression mode : Lossy
Stream size : 457 MiB (13%)
Language : Russian
Default : Yes
Forced : No

Text
ID : 3
Format : UTF-8
Codec ID : S_TEXT/UTF8
Codec ID/Info : UTF-8 Plain Text
Duration : 17 min
Bit rate : 9 b/s
Count of elements : 17
Stream size : 1.22 KiB (0%)
Title : forced
Language : Russian
Default : Yes
Forced : No

Menu
00:00:00.000 : :Chapter 01
00:14:33.998 : :Chapter 02
00:25:23.980 : :Chapter 03
00:37:35.211 : :Chapter 04
00:48:08.218 : :Chapter 05
00:59:10.046 : :Chapter 06
01:08:41.367 : :Chapter 07
01:19:54.831 : :Chapter 08
01:31:57.720 : :Chapter 09
01:45:39.583 : :Chapter 10
01:58:02.742 : :Chapter 11
02:13:05.102 : :Chapter 12
02:22:13.483 : :Chapter 13

pb.wtf



Скачать Викинг через торрент http://i77.fastpic.ru/big/2016/0417/a7/808a646271c761f7c7d87df3d366b3a7.png Скачать фильм Викинг через торрент бесплантно в хорошем качестве Описание: Раннее Средневековье. Время тяжелых мечей и темных законов крови. Правящий род в раздоре. Вина за случайную смерть брата легла на ... 8.5 10 4
Info! Золотая раздача, скачанное не засчитывается.
Торрент: Зарегистрирован [2017-04-27 07:01] · скачан: 237 раз
Статус: √ проверено
Размер: 3.42 GB
Как cкачать? Как скачать Викинг через торрент | UTorrent

% Раздел Тема Автор DL S | L
R.G. Resident & PiratVoice - Фильмы, Видео [ 8.56 GB ] Викинг [2016 история BDRip 720р ] [] / GER Transfer / Расширенная версия schultz Скачать
1 | 0

28-11-2019 20:33  

Отключить всю рекламу на сайте

28-04-2017 10:40 Викинг Скачать торрент  

и что в этой версии расширено?pb.wtf



    Дорогой пользователь! Огромная просьба, поблагодарите релизера, оцените раздачу и оставьте свои комментарий, если Вы скачали Викинг через торрент бесплатно! Внесите свою лепту в развитие PiratBit!
    Комментировать посты могут только пользователи прошедшие не сложную регистрацию
    Показать сообщения:    

    Викинг через торрент
    Скачать бесплатно Викинг
    Викинг скачать торрент
    Викинг смотреть онлайн
    Cкачать фильм Викинг бесплатно
    Викинг скачать торрент в хорошем качестве
    Викинг смотреть онлайн бесплатно в хорошем качестве


    Вы не можете начинать темы
    Вы не можете отвечать на сообщения
    Вы не можете редактировать свои сообщения
    Вы не можете удалять свои сообщения
    Вы не можете голосовать в опросах
    Вы не можете прикреплять файлы к сообщениям
    Вы можете скачивать файлы