2 сезон

iTunes

MVO

1

2 сезон

iTunes

iTunes

1 сезон

RePack

30

Новинка

ВАЖНО

ИГРА 18+

pack

RePack

MK11
pack

Легкие деньги

RePack

jed

RePack

fifa19

RePack

RDR2

RePack

NEED FOR SPEED™ PAYBACK

4 сезон

9 сезон

Бесстыжие 9 сезон

Все сериалы

все сериалы на PB.wtf

RePack

FAR CRY 5

Anonymous, добрый вечер, мы не успеваем собрать деньги на оплату серверов за декабрь и январь, помогите нам пожалуйста в это трудное время. В качестве благодарности мы отключим Вам всю рекламу на сайте (укажите свой ник в строку Ваше имя)!

×
  
Magnet ссылка

Планета Земля 2 / Planet Earth II / 1-6 серий из 6 (Джастин Андерсон) [2016, документальный, природа, путешествие, исследование, флора, фауна, BDRip] DVO pb.wtf

Планета Земля 2 через торрент pb.wtf

Размер: 5.28 GB | Добавлен: 3 года 8 мес. назад | Торрент скачан:16 раз
Скачать  

27-04-2017 07:17 Планета Земля 2 Скачать торрент  

Планета Земля 2 / Planet Earth II
Год выпуска: 2016
Страна: Великобритания
Жанр: документальный, природа, путешествие, исследование, флора, фауна
Продолжительность: 6x ~00:58:35
Перевод: Профессиональный (двухголосый) - [«Омикрон»]
Субтитры: русские (внешние, SRT)

Режиссер: Джастин Андерсон

rating

Ведущий: Дэвид Аттенборо

Описание:

Очередной документальный сериал, показывающий Землю такой, какой ее еще никто не видел прежде. Невероятные по красоте пейзажи и самые заповедные и малоизученные уголки нашей планеты. Один из самых знаменитых в мире телеведущих и натуралистов, Дэвид Аттенборо, вновь возвратит нас в этот захватывающий документальный фильм, демонстрирующий жизнь на планете Земля.

Качество: BDRip
Формат: AVI
Видео кодек: XviD
Аудио кодек: AC3

Видео: 720x400 (1.80:1), 25 fps, XviD build 73 ~1699 kbps avg, 0.24 bit/pixel
Аудио#1: 48 kHz, AC3 Dolby Digital, 3/2 (L,C,R,l,r) + LFE ch, ~448 kbps
1. Острова / Islands
2. Горы / Mountains
3. Джунгли / Jungles
4. Пустыни / Deserts
5. Пастбища / Grasslands
6. Города / Cities

скриншот   скриншот   скриншот   скриншот   скриншот  

Общее
Полное имя : BBC. Планета Земля 2 (2016) BDRip\1. Острова (2016) BDRip.avi
Формат : AVI
Формат/Информация : Audio Video Interleave
Размер файла : 904 Мбайт
Продолжительность : 58 м. 35 с.
Общий поток : 2157 Кбит/сек
Программа кодирования : VirtualDubMod 1.5.10.3 | www.virtualdub-fr.org || (build 2550/release)
Библиотека кодирования : VirtualDubMod build 2550/release

Видео
Идентификатор : 0
Формат : MPEG-4 Visual
Профиль формата : Advanced Simple@L5
Параметр BVOP формата : 2
Параметр QPel формата : Нет
Параметр GMC формата : Без точки перехода
Параметр матрицы формата : Default (MPEG)
Идентификатор кодека : XVID
Идентификатор кодека/Подсказка : XviD
Продолжительность : 58 м. 35 с.
Битрейт : 1699 Кбит/сек
Ширина : 720 пикселей
Высота : 400 пикселей
Соотношение сторон : 16:9
Частота кадров : 25,000 кадров/сек
Цветовое пространство : YUV
Субдискретизация насыщенности : 4:2:0
Битовая глубина : 8 бит
Тип развёртки : Прогрессивная
Метод сжатия : С потерями
Бит/(Пиксели*Кадры) : 0.236
Размер потока : 712 Мбайт (79%)
Библиотека кодирования : XviD 73

Аудио
Идентификатор : 1
Формат : AC-3
Формат/Информация : Audio Coding 3
Расширение режима : CM (complete main)
Параметр Endianness формата : Big
Идентификатор кодека : 2000
Продолжительность : 58 м. 35 с.
Вид битрейта : Постоянный
Битрейт : 448 Кбит/сек
Каналы : 6 каналов
Расположение каналов : Front: L C R, Side: L R, LFE
Частота : 48,0 КГц
Частота кадров : 31,250 кадров/сек (1536 spf)
Метод сжатия : С потерями
Размер потока : 188 Мбайт (21%)
Выравнивание : Разделение по промежуткам
Продолжительность промежутка : 40 мс. (1,00 видеокадр)
Время предзагрузки промежутка : 500 мс.

pb.wtf



Скачать Планета Земля 2 через торрент http://s018.radikal.ru/i523/1704/63/a3b41810ae5e.jpg Скачать фильм Планета Земля 2 через торрент бесплантно в хорошем качестве Описание: Очередной документальный сериал, показывающий Землю такой, какой ее еще никто не видел прежде. Невероятные по красоте пейзажи и ... 9.9 10 9
Торрент: Зарегистрирован [2017-04-27 07:17] · скачан: 16 раз
Статус: √ проверено
Размер: 5.28 GB
Как cкачать? Как скачать Планета Земля 2 через торрент | UTorrent

% Раздел Тема Автор DL S | L
BBC [ 2.2 GB ] Планета Земля 2 / Planet Earth II / 1-3 серий из 6 [2016 документальный природа путешествие исследование флора фауна HDRip] [DVO] killermax2013 Скачать
1 | 0

28-11-2019 20:33  

Отключить всю рекламу на сайте

27-04-2017 07:33 Планета Земля 2 Скачать торрент  

Эх, такое надо в смотреть в фуллXD на телике...pb.wtf



27-04-2017 08:03 Планета Земля 2 Скачать торрент  

Naamahx писал(а):

Эх, такое надо в смотреть в фуллXD на телике...

на других ресурсах есть в разрешении 1080 и даже 2160...
http://спамpb.wtf
!-Lexx- писал(а):

Денди, Правила пользования данным ресурсом.

Цитата:

2. Ограничения на форуме.
Всем участникам данного форума запрещается:
2.10. Ссылаться на другие ресурсы сети

Ссылку отредактировал.
Предупреждение.



  https://pb.wtf/topic/27/ пункт 2.10, выдал -Lexx-
    Дорогой пользователь! Огромная просьба, поблагодарите релизера, оцените раздачу и оставьте свои комментарий, если Вы скачали Планета Земля 2 через торрент бесплатно! Внесите свою лепту в развитие PiratBit!
    Комментировать посты могут только пользователи прошедшие не сложную регистрацию
    Показать сообщения:    

    Планета Земля 2 через торрент
    Скачать бесплатно Планета Земля 2
    Планета Земля 2 скачать торрент
    Планета Земля 2 смотреть онлайн
    Cкачать фильм Планета Земля 2 бесплатно
    Планета Земля 2 скачать торрент в хорошем качестве
    Планета Земля 2 смотреть онлайн бесплатно в хорошем качестве


    Вы не можете начинать темы
    Вы не можете отвечать на сообщения
    Вы не можете редактировать свои сообщения
    Вы не можете удалять свои сообщения
    Вы не можете голосовать в опросах
    Вы не можете прикреплять файлы к сообщениям
    Вы можете скачивать файлы