Ссылка на приватное зеркало нашего сайта всего за 1$. Внимание количество ограничено!!!

2 сезон

iTunes

1 сезон

1

2 сезон

2 сезон

iTunes

1 сезон

RePack

30

Новинка

ВАЖНО

ИГРА 18+

pack

RePack

MK11
pack

Забери бонус

RePack

jed

!!Акция!!

Alien_Rage

RePack

fifa19

RePack

Assassins Creed: Odyssey

RePack

NEED FOR SPEED™ PAYBACK

4 сезон

9 сезон

Бесстыжие 9 сезон

Все сериалы

все сериалы на PB.wtf

RePack

FAR CRY 5
  

По друзьям / По вписке / Crashing / Сезон: 1 / Серии 1-8 из 8 (Джадд Апатоу, Крис Келли, Райан МакФол) [2017 г., комедия, WEBRip, Профессиональный многоголосый BaibaKo] pb.wtf

По друзьям через торрент pb.wtf

Размер: 3.36 GB | Добавлен: 3 года 7 мес. назад | Торрент скачан:14 раз
Скачать  

27-04-2017 16:17 По друзьям Скачать торрент  


По друзьям / По вписке / Crashing
Год выпуска: 2017
Страна: США
Жанр: комедия
Продолжительность: ~00:37:00 серия
Перевод: Профессиональный многоголосый BaibaKoскриншот  
Субтитры: нет

Режиссер: Джадд Апатоу, Крис Келли, Райан МакФол

Премьера в мире: 19 февраля 2017

rating

В ролях: Пит Холмс, Лорен Лапкус, Джордж Бейзил, Арти Лэнг, ТиДжей Миллер, Джои Озенн, Грир Барнс, Капиль Бава, Илана Бекер, Эми Беттина

Описание: Стендап-комика по имени Пит вполне можно было назвать счастливым человеком. Его устраивала его жизнь и ничего кардинально он не собирался в ней менять. Однако так было лишь до того момента, пока он не застал собственную жену в объятиях другого мужчины. Пит принимает решение начать всё с чистого листа в очень шумном городе Нью-Йорк, где он хочет пережить утрату и снова стать счастливым. В этом ему помогут его лучшие друзья.

Доп. информация: Присутствуют рекламные вставки!

Качество: WEBRip
Формат: AVI
Видео кодек: XviD
Аудио кодек: MP3
Видео: XviD Advanced Simple@L5,1500 Кбит/сек,720x400 (1.778),23,976 (24000/1001) кадра/сек
Аудио#1: русский, MPEG-1 Audio layer 3, 192 Кбит/сек, 2 канала, 48,0 КГц
Аудио#2: английский, MPEG-1 Audio layer 3, 192 Кбит/сек, 2 канала, 48,0 КГц
Релиз от:








General
Complete name : D:\Crashing.2017.s01.WEBRip.XviD.Rus.Eng.BaibaKo.tv\Crashing.2017.s01e01.WEBRip.XviD.Rus.Eng.BaibaKo.tv.avi
Format : AVI
Format/Info : Audio Video Interleave
File size : 502 MiB
Duration : 37mn 7s
Overall bit rate : 1 891 Kbps

Video
ID : 0
Format : MPEG-4 Visual
Format profile : Advanced Simple@L5
Format settings, BVOP : 2
Format settings, QPel : No
Format settings, GMC : No warppoints
Format settings, Matrix : Default (H.263)
Codec ID : XVID
Codec ID/Hint : XviD
Duration : 37mn 7s
Bit rate : 1 500 Kbps
Width : 720 pixels
Height : 400 pixels
Display aspect ratio : 16:9
Frame rate : 23.976 fps
Color space : YUV
Chroma subsampling : 4:2:0
Bit depth : 8 bits
Scan type : Progressive
Compression mode : Lossy
Bits/(Pixel*Frame) : 0.217
Stream size : 398 MiB (79%)
Writing library : XviD 67

Audio #1
ID : 1
Format : MPEG Audio
Format version : Version 1
Format profile : Layer 3
Mode : Joint stereo
Mode extension : MS Stereo
Codec ID : 55
Codec ID/Hint : MP3
Duration : 37mn 7s
Bit rate mode : Constant
Bit rate : 192 Kbps
Channel(s) : 2 channels
Sampling rate : 48.0 KHz
Compression mode : Lossy
Stream size : 51.0 MiB (10%)
Alignment : Aligned on interleaves
Interleave, duration : 167 ms (4.00 video frames)
Interleave, preload duration : 216 ms
Title : Crashing.2017.s01e01.HD720p.WEBRip.Rus.Eng.BaibaKo.tv - [0] Russian_audio
Writing library : LAME3.99r
Encoding settings : -m j -V 4 -q 2 -lowpass 18.6 -b 192

Audio #2
ID : 2
Format : MPEG Audio
Format version : Version 1
Format profile : Layer 3
Mode : Joint stereo
Mode extension : MS Stereo
Codec ID : 55
Codec ID/Hint : MP3
Duration : 37mn 7s
Bit rate mode : Constant
Bit rate : 192 Kbps
Channel(s) : 2 channels
Sampling rate : 48.0 KHz
Compression mode : Lossy
Stream size : 51.0 MiB (10%)
Alignment : Aligned on interleaves
Interleave, duration : 167 ms (4.00 video frames)
Interleave, preload duration : 216 ms
Title : Crashing.2017.s01e01.HD720p.WEBRip.Rus.Eng.BaibaKo.tv - [1] English_audio
Writing library : LAME3.99r
Encoding settings : -m j -V 4 -q 2 -lowpass 18.6 -b 192

pb.wtf



Скачать По друзьям через торрент http://pic1.kartinco.top/images/11/r5738.jpg Скачать фильм По друзьям через торрент бесплантно в хорошем качестве Описание: Стендап-комика по имени Пит вполне можно было назвать счастливым человеком. Его устраивала его жизнь и ничего кардинально он не ... 10 10 1
Info! Золотая раздача, скачанное не засчитывается.
Торрент: Зарегистрирован [2017-04-27 16:17] · скачан: 14 раз
Статус: √ проверено
Размер: 3.36 GB
Как cкачать? Как скачать По друзьям через торрент | qTorrent

28-11-2019 20:33  

Отключить всю рекламу на сайте

27-04-2017 16:42 По друзьям Скачать торрент  

Dusster, на Кинопоиске и на IMDb название сериала - По друзьям. Если сериал имеет несколько названий, указывайте первым то, которое принято официально.
Заголовок отредактировал.pb.wtf



    Дорогой пользователь! Огромная просьба, поблагодарите релизера, оцените раздачу и оставьте свои комментарий, если Вы скачали По друзьям через торрент бесплатно! Внесите свою лепту в развитие PiratBit!
    Комментировать посты могут только пользователи прошедшие не сложную регистрацию
    Показать сообщения:    

    По друзьям через торрент
    Скачать бесплатно По друзьям
    По друзьям скачать торрент
    По друзьям смотреть онлайн
    Cкачать фильм По друзьям бесплатно
    По друзьям скачать торрент в хорошем качестве
    По друзьям смотреть онлайн бесплатно в хорошем качестве


    Вы не можете начинать темы
    Вы не можете отвечать на сообщения
    Вы не можете редактировать свои сообщения
    Вы не можете удалять свои сообщения
    Вы не можете голосовать в опросах
    Вы не можете прикреплять файлы к сообщениям
    Вы можете скачивать файлы