Ссылка на приватное зеркало нашего сайта всего за 1$. Внимание количество ограничено!!!

2 сезон

iTunes

1 сезон

1

2 сезон

2 сезон

iTunes

1 сезон

RePack

30

Ultimate

ВАЖНО

ИГРА 18+

pack

RePack

MK11
pack

Забери бонус

RePack

jed

!!Акция!!

Alien_Rage

RePack

fifa19

RePack

Assassins Creed: Odyssey

RePack

NEED FOR SPEED™ PAYBACK

4 сезон

9 сезон

Бесстыжие 9 сезон

Все сериалы

все сериалы на PB.wtf

RePack

FAR CRY 5
  

Дорогие белые / Dear White People / Сезон: 1 / Серии 1-10 из 10 (Тина Мэбри / Tina Mabry, Барри Дженкинс / Barry Jenkins, Чарли МакДауэлл / Charlie McDowell) [2017 , США, комедия, WEBRip 720p] MVO [BaibaKo] pb.wtf

Дорогие белые через торрент pb.wtf

Размер: 4.96 GB | Добавлен: 3 года 6 мес. назад | Торрент скачан:4 раза
Скачать  

29-04-2017 02:30 Дорогие белые Скачать торрент  

Дорогие белые / Dear White People


  • Год выпуска: 2017
  • Страна: США
  • Жанр: комедия
  • Продолжительность: 00:32:57 (Серия)
  • Перевод: Профессиональный многоголосый [BaibaKo]
  • Режиссер: Тина Мэбри / Tina Mabry, Барри Дженкинс / Barry Jenkins, Чарли МакДауэлл / Charlie McDowell
  • В ролях:

    Марке Ричардсон II (Reggie Green), Антониетта Робертсон (Coco Conners), Эшли Блейн Физерсон (Joelle Brooks), Брэндон Пи Белл (Troy Fairbanks), Логан Браунинг (Samantha White), Джон Патрик Амедори (Gabe), Дерон Хортон (Lionel), Ниа Джервьер (Kelsey), Джемар Майкл (Al), Уайатт Нэш (Kurt Fletcher), Джереми Тарди (Rashid Bakr), Кэйтлин Карвер (Muffy)


  • Колледж Лиги Плюща посещают преимущественно белые студенты. Возмущённые фактами дискриминации, учащиеся из смешанной группы пытаются изменить сложившийся порядок.
  • Рейтинг:



  • Качество: WEBRip 720p
  • Формат: :MKV
  • Видео кодек: AVC
  • Аудио кодек: AC3
  • Видео: 1280x640 (2.000), 1838 kbps, 23,976 fps, 0,094 bpp
  • Аудио №1: русский / 5.1 / 48 kHz / 384 kbps |[BaibaKo]|
  • Аудио №2: английский / 5.1 / 48 kHz / 384 kbps
  • Релиз от: GEKADOL

    Внимание! Раздача ведётся путём добавления новых серий; при каждом добавлении создаётся новый торрент. Чтобы начать докачку новой серии, пользователям необходимо сделать следующее:
    (1) остановить скачивание,
    (2) удалить старый торрент у себя из клиента (старые серии удалять не надо),
    (3) скачать новый торрент и запустить его у себя в клиенте вместо старого, при этом указать клиенту путь в старую папку куда и должно происходить скачивание новых серий.
    Ваш клиент при этом должен произвести хеширование (проверку) старой папки (если не производит сам - помогите ему сделать это), и будет докачивать только те серии которых у вас ещё нет. Старые серии при этом не удаляются, а продолжают раздаваться!
    Eсли вы уже удалили старые серии, то предотвратить повторную закачку старых серий можно, отжав галочку в соответствующих местах при запуске нового торрента. По возможности, желательно не удалять старые серии как можно дольше чтобы релизёр не столько продолжал раздавать старые серии, а смог сконцентрироваться на новых.

    General
    Unique ID : 221138499975134799274725998910697859423 (0xA65DB9D45049B2D1B4D2FD2D47DF695F)
    Complete name : K:\Дорогие белые (Dear White People)\Dear.White.People.s01e01.HD720p.WEBRip.Rus.Eng.BaibaKo.tv.mkv
    Format : Matroska
    Format version : Version 4 / Version 2
    File size : 615 MiB
    Duration : 32 min
    Overall bit rate : 2 608 kb/s
    Encoded date : UTC 2017-04-29 03:09:55
    Writing application : mkvmerge v10.0.0 ('To Drown In You') 64bit
    Writing library : libebml v1.3.4 + libmatroska v1.4.5

    Video
    ID : 1
    Format : AVC
    Format/Info : Advanced Video Codec
    Format profile : High@L4.1
    Format settings, CABAC : Yes
    Format settings, ReFrames : 5 frames
    Codec ID : V_MPEG4/ISO/AVC
    Duration : 32 min
    Bit rate : 1 839 kb/s
    Width : 1 280 pixels
    Height : 640 pixels
    Display aspect ratio : 2.000
    Frame rate mode : Constant
    Frame rate : 23.976 (23976/1000) FPS
    Original frame rate : 23.976 (24000/1001) FPS
    Color space : YUV
    Chroma subsampling : 4:2:0
    Bit depth : 8 bits
    Scan type : Progressive
    Bits/(Pixel*Frame) : 0.094
    Stream size : 433 MiB (70%)
    Default : No
    Forced : No

    Audio #1
    ID : 2
    Format : AC-3
    Format/Info : Audio Coding 3
    Mode extension : CM (complete main)
    Format settings, Endianness : Big
    Codec ID : A_AC3
    Duration : 32 min
    Bit rate mode : Constant
    Bit rate : 384 kb/s
    Channel(s) : 6 channels
    Channel positions : Front: L C R, Side: L R, LFE
    Sampling rate : 48.0 kHz
    Frame rate : 31.250 FPS (1536 spf)
    Compression mode : Lossy
    Delay relative to video : 17 ms
    Stream size : 90.5 MiB (15%)
    Language : Russian
    Default : Yes
    Forced : No

    Audio #2
    ID : 3
    Format : AC-3
    Format/Info : Audio Coding 3
    Mode extension : CM (complete main)
    Format settings, Endianness : Big
    Codec ID : A_AC3
    Duration : 32 min
    Bit rate mode : Constant
    Bit rate : 384 kb/s
    Channel(s) : 6 channels
    Channel positions : Front: L C R, Side: L R, LFE
    Sampling rate : 48.0 kHz
    Frame rate : 31.250 FPS (1536 spf)
    Compression mode : Lossy
    Delay relative to video : 27 ms
    Stream size : 90.5 MiB (15%)
    Language : English
    Default : No
    Forced : No



    Скриншоты:
    скриншот   скриншот   скриншот   скриншот   скриншот   скриншот   скриншот  
    скриншот  

    Раздача ведётся путём добавления новых серий. Добавлена 10 серия (01.05.2017).Просьба перекачать торрент файл.

    pb.wtf



  • Скачать Дорогие белые через торрент http://i91.fastpic.ru/big/2017/0429/e7/c4dce2e38b86366bf1c7a562a7bfece7.jpg Скачать фильм Дорогие белые через торрент бесплантно в хорошем качестве qw.png Колледж Лиги Плюща посещают преимущественно белые студенты. Возмущённые фактами дискриминации, учащиеся из смешанной группы ... 5 10 1
    Info! Золотая раздача, скачанное не засчитывается.
    Торрент: Зарегистрирован [2017-05-01 01:59] · скачан: 4 раз
    Статус: √ проверено
    Размер: 4.96 GB
    Как cкачать? Как скачать Дорогие белые через торрент | qTorrent

    28-11-2019 20:33  

    Отключить всю рекламу на сайте

    01-05-2017 02:26 Дорогие белые Скачать торрент  

    Всех с праздником!!!! pb.wtf



      Дорогой пользователь! Огромная просьба, поблагодарите релизера, оцените раздачу и оставьте свои комментарий, если Вы скачали Дорогие белые через торрент бесплатно! Внесите свою лепту в развитие PiratBit!
      Комментировать посты могут только пользователи прошедшие не сложную регистрацию
      Показать сообщения:    

      Дорогие белые через торрент
      Скачать бесплатно Дорогие белые
      Дорогие белые скачать торрент
      Дорогие белые смотреть онлайн
      Cкачать фильм Дорогие белые бесплатно
      Дорогие белые скачать торрент в хорошем качестве
      Дорогие белые смотреть онлайн бесплатно в хорошем качестве


      Вы не можете начинать темы
      Вы не можете отвечать на сообщения
      Вы не можете редактировать свои сообщения
      Вы не можете удалять свои сообщения
      Вы не можете голосовать в опросах
      Вы не можете прикреплять файлы к сообщениям
      Вы можете скачивать файлы