Ссылка на приватное зеркало нашего сайта всего за 1$. Внимание количество ограничено!!!

2 сезон

iTunes

1 сезон

1

iTunes

iTunes

iTunes

1 сезон

RePack

30

ИГРА 18+

pack

ВАЖНО

!!Акция!!

Alien_RageХит недели

RePack

MK11
pack

Забери бонус

RePack

jed

!!Акция!!

Alien_Rage

RePack

fifa19

RePack

Assassins Creed: Odyssey

RePack

NEED FOR SPEED™ PAYBACK

4 сезон

9 сезон

Бесстыжие 9 сезон

Все сериалы

все сериалы на PB.wtf

RePack

FAR CRY 5
  

Воин с золотым шестом / Pendekar Tongkat Emas (Ифа Исфансиа) [2014, боевик, драма, BDRip 1080p by msltel] MVO pb.wtf

Воин с золотым шестом через торрент pb.wtf

Размер: 9.6 GB | Добавлен: 3 года 5 мес. назад | Торрент скачан:162 раза
Скачать  

29-04-2017 06:20 Воин с золотым шестом Скачать торрент  

Название: Воин с золотым шестом
Оригинальное название: Pendekar Tongkat Emas
Год выпуска: 2014
Страна: Индонезия
Жанр: боевик, драма
Продолжительность: 01:51:05
Перевод: профессиональный многоголосый

Режиссёр: Ифа Исфансиа

В ролях: Тара Басро, Кристин Хаким, Ева Челиа Латджуба, Реза Рахадьян, Николас Сапутра

Описание: Когда-то давно учитель Чемпака усыновила четырёх детей своих врагов — двух девочек и двух мальчиков. Дети росли дружной семьёй, но приблизился момент, когда учитель должна решить, кто из них унаследует золотой шест, и духа общности как не бывало. Каждый хочет заполучить желанное оружие. Ведь его обладатель станет непобедимым мастером боевых искусств. Решение Чемпаки нравится далеко не всем, и в бывшей дружной семье теперь прольётся кровь...



Качество: BDRip 1080p
Формат: MKV
Видео: MPEG-4 AVC, 9355 Кбит/с, 1920х800, 24 кадра/с
Аудио 1: русский, DTS, 1509 kbps, 6 ch, 48 kHz [профессиональный многоголосый, СВ студия]
Аудио 2: индонезийский, DTS, 1509 kbps, 6 ch, 48 kHz [оригинал]
Субтитры 1: русские
Субтитры 2: английские
Имеются неименованные главы/чаптеры.
Общее
Уникальный идентификатор : 230292555070203865749102830341949577023 (0xAD40BB97555D17C8AC542493893D573F)
Полное имя : D:\Video\Воин с золотым шестом.2014.BDRip.1080p by msltel.mkv
Формат : Matroska
Версия формата : Version 4 / Version 2
Размер файла : 9,60 Гбайт
Продолжительность : 1 ч. 51 м.
Общий поток : 12,4 Мбит/сек
Название фильма : Rip by msltel
Дата кодирования : UTC 2017-04-29 02:06:32
Программа кодирования : mkvmerge v8.2.0 ('World of Adventure') 64bit
Библиотека кодирования : libebml v1.3.1 + libmatroska v1.4.2

Видео
Идентификатор : 1
Формат : AVC
Формат/Информация : Advanced Video Codec
Профиль формата : High@L4.1
Параметр CABAC формата : Да
Параметр ReFrames формата : 4 кадра
Идентификатор кодека : V_MPEG4/ISO/AVC
Продолжительность : 1 ч. 51 м.
Битрейт : 9355 Кбит/сек
Ширина : 1920 пикселей
Высота : 800 пикселей
Соотношение сторон : 2,40:1
Режим частоты кадров : Постоянный
Частота кадров : 24,000 кадра/сек
Цветовое пространство : YUV
Субдискретизация насыщенности : 4:2:0
Битовая глубина : 8 бит
Тип развёртки : Прогрессивная
Бит/(Пиксели*Кадры) : 0.254
Размер потока : 7,26 Гбайт (76%)
Библиотека кодирования : x264 core 146 r2538 121396c
Настройки программы : cabac=1 / ref=4 / deblock=1:-3:-2 / analyse=0x3:0x113 / me=umh / subme=11 / psy=1 / psy_rd=1.00:0.15 / mixed_ref=1 / me_range=32 / chroma_me=1 / trellis=2 / 8x8dct=1 / cqm=0 / deadzone=21,11 / fast_pskip=0 / chroma_qp_offset=-3 / threads=6 / lookahead_threads=1 / sliced_threads=0 / nr=0 / decimate=1 / interlaced=0 / bluray_compat=0 / constrained_intra=0 / bframes=9 / b_pyramid=2 / b_adapt=2 / b_bias=0 / direct=1 / weightb=1 / open_gop=0 / weightp=2 / keyint=230 / keyint_min=23 / scenecut=40 / intra_refresh=0 / rc_lookahead=40 / rc=crf / mbtree=0 / crf=17.8 / qcomp=0.60 / qpmin=0 / qpmax=69 / qpstep=4 / vbv_maxrate=62500 / vbv_bufsize=78125 / crf_max=0.0 / nal_hrd=none / filler=0 / ip_ratio=1.40 / pb_ratio=1.30 / aq=1:1.00
Язык : Indonesian
Default : Да
Forced : Нет

Аудио #1
Идентификатор : 2
Формат : DTS
Формат/Информация : Digital Theater Systems
Режим : 16
Параметр Endianness формата : Big
Идентификатор кодека : A_DTS
Продолжительность : 1 ч. 51 м.
Вид битрейта : Постоянный
Битрейт : 1509 Кбит/сек
Каналы : 6 каналов
Расположение каналов : Front: L C R, Side: L R, LFE
Частота : 48,0 КГц
Частота кадров : 93,750 кадра/сек (512 spf)
Битовая глубина : 16 бит
Метод сжатия : С потерями
Размер потока : 1,17 Гбайт (12%)
Заголовок : MVO (СВ студия)
Язык : Russian
Default : Да
Forced : Нет

Аудио #2
Идентификатор : 3
Формат : DTS
Формат/Информация : Digital Theater Systems
Режим : 16
Параметр Endianness формата : Big
Идентификатор кодека : A_DTS
Продолжительность : 1 ч. 51 м.
Вид битрейта : Постоянный
Битрейт : 1509 Кбит/сек
Каналы : 6 каналов
Расположение каналов : Front: L C R, Side: L R, LFE
Частота : 48,0 КГц
Частота кадров : 93,750 кадра/сек (512 spf)
Битовая глубина : 16 бит
Метод сжатия : С потерями
Размер потока : 1,17 Гбайт (12%)
Заголовок : original
Язык : Indonesian
Default : Нет
Forced : Нет

Текст #1
Идентификатор : 4
Формат : UTF-8
Идентификатор кодека : S_TEXT/UTF8
Идентификатор кодека/Информация : UTF-8 Plain Text
Продолжительность : 1 ч. 44 м.
Битрейт : 38 бит/сек
ElementCount : 461
Размер потока : 29,0 Кбайт (0%)
Заголовок : русские
Язык : Russian
Default : Нет
Forced : Нет

Текст #2
Идентификатор : 5
Формат : UTF-8
Идентификатор кодека : S_TEXT/UTF8
Идентификатор кодека/Информация : UTF-8 Plain Text
Продолжительность : 1 ч. 44 м.
Битрейт : 21 бит/сек
ElementCount : 508
Размер потока : 16,5 Кбайт (0%)
Заголовок : английские
Язык : English
Default : Нет
Forced : Нет

Меню
00:00:00.000 : id:00:00:00.000
00:09:27.458 : id:00:09:27.458
00:17:34.167 : id:00:17:34.167
00:23:35.708 : id:00:23:35.708
00:33:56.750 : id:00:33:56.750
00:43:22.042 : id:00:43:22.042
00:56:35.542 : id:00:56:35.542
01:03:39.792 : id:01:03:39.792
01:14:50.792 : id:01:14:50.792
01:25:14.042 : id:01:25:14.042
01:39:43.042 : id:01:39:43.042
01:45:22.042 : id:01:45:22.042
pb.wtf



Скачать Воин с золотым шестом через торрент http://hostpic.gq/img/2017-04/29/4ukeoxsljbrzn3g2lauzxu369.jpg Скачать фильм Воин с золотым шестом через торрент бесплантно в хорошем качестве Описание: Когда-то давно учитель Чемпака усыновила четырёх детей своих врагов — двух девочек и двух мальчиков. Дети росли дружной семьёй, ... 10 10 3
Info! Золотая раздача, скачанное не засчитывается.
Торрент: Зарегистрирован [2017-04-29 06:20] · скачан: 162 раз
Статус: √ проверено
Размер: 9.6 GB
Как cкачать? Как скачать Воин с золотым шестом через торрент | qTorrent

% Раздел Тема Автор DL S | L
Фильмы [HD 720p, 1080p] (Хороший звук DUB, MVO) [ 3.62 GB ] Воин с золотым шестом / Pendekar Tongkat Emas [2014 BDRip 720p by msltel] MVO msltel Скачать
1 | 0

28-11-2019 20:33  

Отключить всю рекламу на сайте

    Дорогой пользователь! Огромная просьба, поблагодарите релизера, оцените раздачу и оставьте свои комментарий, если Вы скачали Воин с золотым шестом через торрент бесплатно! Внесите свою лепту в развитие PiratBit!
    Комментировать посты могут только пользователи прошедшие не сложную регистрацию
    Показать сообщения:    

    Воин с золотым шестом через торрент
    Скачать бесплатно Воин с золотым шестом
    Воин с золотым шестом скачать торрент
    Воин с золотым шестом смотреть онлайн
    Cкачать фильм Воин с золотым шестом бесплатно
    Воин с золотым шестом скачать торрент в хорошем качестве
    Воин с золотым шестом смотреть онлайн бесплатно в хорошем качестве


    Вы не можете начинать темы
    Вы не можете отвечать на сообщения
    Вы не можете редактировать свои сообщения
    Вы не можете удалять свои сообщения
    Вы не можете голосовать в опросах
    Вы не можете прикреплять файлы к сообщениям
    Вы можете скачивать файлы