2 сезон

iTunes

MVO

1

2 сезон

iTunes

iTunes

1 сезон

RePack

30

Новинка

ВАЖНО

ИГРА 18+

pack

RePack

MK11
pack

Легкие деньги

RePack

jed

RePack

fifa19

RePack

RDR2

RePack

NEED FOR SPEED™ PAYBACK

4 сезон

9 сезон

Бесстыжие 9 сезон

Все сериалы

все сериалы на PB.wtf

RePack

FAR CRY 5

Anonymous, доброй ночи, мы не успеваем собрать деньги на оплату серверов за декабрь и январь, помогите нам пожалуйста в это трудное время. В качестве благодарности мы отключим Вам всю рекламу на сайте (укажите свой ник в строку Ваше имя)!

×
  
Magnet ссылка

Нам здесь не место / We Don't Belong Here (Пир Педерсен) [2017, драма, семейный, WEB-DLRip-AVC] MVO [iTunes] - ExKinoRay pb.wtf

Нам здесь не место через торрент pb.wtf

Размер: 1.33 GB | Добавлен: 3 года 8 мес. назад | Торрент скачан:36 раз
Скачать  

01-05-2017 02:02 Нам здесь не место Скачать торрент  

Информация о фильме
Название: Нам здесь не место
Оригинальное название: We Don't Belong Here
Год выпуска: 2017
Страна: США
Продолжительность: 01:28:56
Жанр: Драма, семейный
Перевод: Профессиональный многоголосый | iTunes
Субтитры: Русские (full, forced), английские
Режиссер: Пир Педерсен
В ролях: Кэтрин Кинер, Антон Ельчин, Кейтлин Дивер, Майя Рудольф, Райли Кио, Энни Старк, Джастин Чатвин, Молли Шеннон, Кэри Элвис, Остин Абрамс

Описание: Семейная драма о немолодой женщине Нэнси Грин, которая тянет на себе нескольких проблемных детей. Исчезновение сына становится для Нэнси последней каплей, после чего наступает переломный момент ее жизни.

rating

Файл
Качество: WEB-DLRip-AVC
Видео: MPEG-4 AVC, , 1024x426 (2.40:1), 23.976 fps, ~ 1380 kbps avg, 0.132 bit/pixel
Аудио1: AC-3, 48.0 KHz, 5.1 ch, 384 Kbps, CBR (Russian)
Аудио2: AC-3, 48.0 KHz, 5.1 ch, 384 Kbps, CBR (English)
General
Unique ID : 176579345153687213295923541012746475352 (0x84D7F1E0FAF77CE28408ABB8869E1758)
Complete name : D:\We.Dont.Belong.Here.2017.WEB-DLRip.AVC.ExKinoRay.mkv
Format : Matroska
Format version : Version 2
File size : 1.33 GiB
Duration : 1 h 28 min
Overall bit rate : 2 148 kb/s
Movie name : We Dont Belong Here 2017 from ExKinoRay
Encoded date : UTC 2017-04-30 22:58:14
Writing application : mkvmerge v5.8.0 ('No Sleep / Pillow') built on Sep 2 2012 15:37:04
Writing library : libebml v1.2.3 + libmatroska v1.3.0

Video
ID : 1
Format : AVC
Format/Info : Advanced Video Codec
Format profile : High@L4.1
Format settings, CABAC : Yes
Format settings, ReFrames : 11 frames
Codec ID : V_MPEG4/ISO/AVC
Duration : 1 h 28 min
Bit rate : 1 380 kb/s
Width : 1 024 pixels
Height : 426 pixels
Display aspect ratio : 2.40:1
Frame rate mode : Constant
Frame rate : 23.976 (24000/1001) FPS
Color space : YUV
Chroma subsampling : 4:2:0
Bit depth : 8 bits
Scan type : Progressive
Bits/(Pixel*Frame) : 0.132
Stream size : 851 MiB (62%)
Title : Enigma
Writing library : x264 core 144 r2525 40bb568
Encoding settings : cabac=1 / ref=11 / deblock=1:-2:-2 / analyse=0x3:0x113 / me=umh / subme=10 / psy=1 / psy_rd=1.00:0.05 / mixed_ref=1 / me_range=32 / chroma_me=1 / trellis=2 / 8x8dct=1 / cqm=0 / deadzone=21,11 / fast_pskip=1 / chroma_qp_offset=-3 / threads=12 / lookahead_threads=3 / sliced_threads=0 / nr=0 / decimate=0 / interlaced=0 / bluray_compat=0 / constrained_intra=0 / bframes=10 / b_pyramid=2 / b_adapt=2 / b_bias=0 / direct=3 / weightb=1 / open_gop=0 / weightp=2 / keyint=240 / keyint_min=23 / scenecut=40 / intra_refresh=0 / rc_lookahead=40 / rc=2pass / mbtree=0 / bitrate=1380 / ratetol=1.0 / qcomp=0.60 / qpmin=0 / qpmax=51 / qpstep=4 / cplxblur=20.0 / qblur=0.5 / vbv_maxrate=50000 / vbv_bufsize=62500 / nal_hrd=none / filler=0 / ip_ratio=1.40 / pb_ratio=1.30 / aq=1:1.00
Default : Yes
Forced : No
Color range : Limited
Color primaries : BT.709
Transfer characteristics : BT.709
Matrix coefficients : BT.709

Audio #1
ID : 2
Format : AC-3
Format/Info : Audio Coding 3
Mode extension : CM (complete main)
Format settings, Endianness : Big
Codec ID : A_AC3
Duration : 1 h 28 min
Bit rate mode : Constant
Bit rate : 384 kb/s
Channel(s) : 6 channels
Channel positions : Front: L C R, Side: L R, LFE
Sampling rate : 48.0 kHz
Frame rate : 31.250 FPS (1536 spf)
Compression mode : Lossy
Stream size : 244 MiB (18%)
Title : iTunes
Language : Russian
Default : Yes
Forced : No

Audio #2
ID : 3
Format : AC-3
Format/Info : Audio Coding 3
Mode extension : CM (complete main)
Format settings, Endianness : Big
Codec ID : A_AC3
Duration : 1 h 28 min
Bit rate mode : Constant
Bit rate : 384 kb/s
Channel(s) : 6 channels
Channel positions : Front: L C R, Side: L R, LFE
Sampling rate : 48.0 kHz
Frame rate : 31.250 FPS (1536 spf)
Compression mode : Lossy
Stream size : 244 MiB (18%)
Title : Original
Language : English
Default : No
Forced : No

Text #1
ID : 4
Format : UTF-8
Codec ID : S_TEXT/UTF8
Codec ID/Info : UTF-8 Plain Text
Title : Forced
Language : Russian
Default : Yes
Forced : No

Text #2
ID : 5
Format : UTF-8
Codec ID : S_TEXT/UTF8
Codec ID/Info : UTF-8 Plain Text
Title : Full
Language : Russian
Default : No
Forced : No

Text #3
ID : 6
Format : UTF-8
Codec ID : S_TEXT/UTF8
Codec ID/Info : UTF-8 Plain Text
Title : Full
Language : English
Default : No
Forced : No

Menu
00:00:00.000 : en:1
00:06:31.099 : en:2
00:14:02.800 : en:3
00:20:46.995 : en:4
00:26:01.434 : en:5
00:30:50.681 : en:6
00:35:29.000 : en:7
00:40:55.534 : en:8
00:47:12.953 : en:9
00:50:49.836 : en:10
00:55:38.791 : en:11
01:01:10.205 : en:12
01:05:19.954 : en:13
01:11:20.981 : en:14
01:15:28.853 : en:15
01:21:55.948 : en:16
Релиз от:

Автор релиза: pb.wtf



Скачать Нам здесь не место через торрент http://s019.radikal.ru/i617/1704/e3/32e8c82f939b.jpg Скачать фильм Нам здесь не место через торрент бесплантно в хорошем качестве Описание: Семейная драма о немолодой женщине Нэнси Грин, которая тянет на себе нескольких проблемных детей. Исчезновение сына становится ... 8.2 10 5
Info! Золотая раздача, скачанное не засчитывается.
Торрент: Зарегистрирован [2017-05-01 02:02] · скачан: 36 раз
Статус: √ проверено
Размер: 1.33 GB
Как cкачать? Как скачать Нам здесь не место через торрент | UTorrent

28-11-2019 20:33  

Отключить всю рекламу на сайте

    Дорогой пользователь! Огромная просьба, поблагодарите релизера, оцените раздачу и оставьте свои комментарий, если Вы скачали Нам здесь не место через торрент бесплатно! Внесите свою лепту в развитие PiratBit!
    Комментировать посты могут только пользователи прошедшие не сложную регистрацию
    Показать сообщения:    

    Нам здесь не место через торрент
    Скачать бесплатно Нам здесь не место
    Нам здесь не место скачать торрент
    Нам здесь не место смотреть онлайн
    Cкачать фильм Нам здесь не место бесплатно
    Нам здесь не место скачать торрент в хорошем качестве
    Нам здесь не место смотреть онлайн бесплатно в хорошем качестве


    Вы не можете начинать темы
    Вы не можете отвечать на сообщения
    Вы не можете редактировать свои сообщения
    Вы не можете удалять свои сообщения
    Вы не можете голосовать в опросах
    Вы не можете прикреплять файлы к сообщениям
    Вы можете скачивать файлы