2 сезон

iTunes

MVO

1

2 сезон

iTunes

iTunes

1 сезон

RePack

30

Новинка

ВАЖНО

ИГРА 18+

pack

RePack

MK11
pack

Легкие деньги

RePack

jed

RePack

fifa19

RePack

RDR2

RePack

NEED FOR SPEED™ PAYBACK

4 сезон

9 сезон

Бесстыжие 9 сезон

Все сериалы

все сериалы на PB.wtf

RePack

FAR CRY 5

Anonymous, добрый день, мы не успеваем собрать деньги на оплату серверов за декабрь и январь, помогите нам пожалуйста в это трудное время. В качестве благодарности мы отключим Вам всю рекламу на сайте (укажите свой ник в строку Ваше имя)!

×
  
Magnet ссылка

Нам здесь не место / We Don't Belong Here (Пир Педерсен) [2017 г., Драма, семейный, WEB-DLRip, Профессиональный (многоголосый)| iTunes] pb.wtf

Нам здесь не место через торрент pb.wtf

Размер: 1.46 GB | Добавлен: 3 года 8 мес. назад | Торрент скачан:128 раз
Скачать  

01-05-2017 02:44 Нам здесь не место Скачать торрент  

Нам здесь не место / We Don't Belong Here
Год выпуска: 2017
Страна: США
Жанр: Драма, семейный
Продолжительность: 01:28:56
Перевод: Профессиональный (многоголосый)| iTunes
Субтитры: Русские форсированные (вшитые)

Режиссер: Пир Педерсен

rating

В ролях: Кэтрин Кинер, Антон Ельчин, Кейтлин Дивер, Майя Рудольф, Райли Кио, Энни Старк, Джастин Чатвин, Молли Шеннон, Кэри Элвис, Остин Абрамс

Описание: Семейная драма о немолодой женщине Нэнси Грин, которая тянет на себе нескольких проблемных детей. Исчезновение сына становится для Нэнси последней каплей, после чего наступает переломный момент ее жизни

Качество: WEB-DLRip
Формат: AVI
Видео кодек: XviD
Аудио кодек: AC3
Видео: XviD, 720x304, 23.976 fps, 1958 kbps
Аудио#1: AC3, 6 ch, 384 kbps ,48.0 KHz



General
Complete name : H:\релизы.торрентфайл\We.Dont.Belong.Here.2017.WEB-DLRip.1.46Gb.MegaPeer.avi
Format : AVI
Format/Info : Audio Video Interleave
File size : 1.46 GiB
Duration : 1h 28mn
Overall bit rate : 2 349 Kbps

Video
ID : 0
Format : MPEG-4 Visual
Format profile : Advanced Simple@L5
Format settings, BVOP : 1
Format settings, QPel : No
Format settings, GMC : No warppoints
Format settings, Matrix : Custom
Codec ID : XVID
Codec ID/Hint : XviD
Duration : 1h 28mn
Bit rate : 1 958 Kbps
Width : 720 pixels
Height : 304 pixels
Display aspect ratio : 2.35:1
Frame rate : 23.976 fps
Color space : YUV
Chroma subsampling : 4:2:0
Bit depth : 8 bits
Scan type : Progressive
Compression mode : Lossy
Bits/(Pixel*Frame) : 0.373
Stream size : 1.22 GiB (83%)
Writing library : XviD 73

Audio
ID : 1
Format : AC-3
Format/Info : Audio Coding 3
Mode extension : CM (complete main)
Format settings, Endianness : Big
Codec ID : 2000
Duration : 1h 28mn
Bit rate mode : Constant
Bit rate : 384 Kbps
Channel(s) : 6 channels
Channel positions : Front: L C R, Side: L R, LFE
Sampling rate : 48.0 KHz
Bit depth : 16 bits
Compression mode : Lossy
Stream size : 244 MiB (16%)
Alignment : Aligned on interleaves
Interleave, duration : 64 ms (1.54 video frames)
Interleave, preload duration : 192 ms
Title : iTunes

pb.wtf



Скачать Нам здесь не место через торрент http://i91.fastpic.ru/big/2017/0501/61/ffcae6eab5f58341a016d133ffd6d861.jpg Скачать фильм Нам здесь не место через торрент бесплантно в хорошем качестве Описание: Семейная драма о немолодой женщине Нэнси Грин, которая тянет на себе нескольких проблемных детей. Исчезновение сына становится ... 10 10 5
Торрент: Зарегистрирован [2017-05-01 02:44] · скачан: 128 раз
Статус: √ проверено
Размер: 1.46 GB
Как cкачать? Как скачать Нам здесь не место через торрент | UTorrent

28-11-2019 20:33  

Отключить всю рекламу на сайте

01-05-2017 10:24 Нам здесь не место Скачать торрент  

а Ельчин вроде же бы умерpb.wtf



01-05-2017 17:28 Нам здесь не место Скачать торрент  

ar4i99 писал(а):

а Ельчин вроде же бы умер

Вот и я об этом подумал Может все таки Пол появится в 8 части форсажа =)pb.wtf



02-05-2017 08:28 Нам здесь не место Скачать торрент  

Юный Чикатилла писал(а):

ar4i99 писал(а):

а Ельчин вроде же бы умер

По ТВ тогда говорили после смерти, что он в очередном фильме пол-фильма успел отсняться. Может это и есть этот фильм...

Это и есть тот фильм. Светлой памяти тебе Антоха..pb.wtf



    Дорогой пользователь! Огромная просьба, поблагодарите релизера, оцените раздачу и оставьте свои комментарий, если Вы скачали Нам здесь не место через торрент бесплатно! Внесите свою лепту в развитие PiratBit!
    Комментировать посты могут только пользователи прошедшие не сложную регистрацию
    Показать сообщения:    

    Нам здесь не место через торрент
    Скачать бесплатно Нам здесь не место
    Нам здесь не место скачать торрент
    Нам здесь не место смотреть онлайн
    Cкачать фильм Нам здесь не место бесплатно
    Нам здесь не место скачать торрент в хорошем качестве
    Нам здесь не место смотреть онлайн бесплатно в хорошем качестве


    Вы не можете начинать темы
    Вы не можете отвечать на сообщения
    Вы не можете редактировать свои сообщения
    Вы не можете удалять свои сообщения
    Вы не можете голосовать в опросах
    Вы не можете прикреплять файлы к сообщениям
    Вы можете скачивать файлы