Лицензия

MVO

1

1 сезон

Лицензия

Лицензия

13

MVO

1 сезон

Ultimate

pack

Рекомендуем

30

Repack

ВАЖНО

ВАЖНО

Ghostwire

RePack

jed

RePack

fifa19

RePack

RDR2

RePack

NEED FOR SPEED™ PAYBACK

RePack

Кинопоиск HD

 Острые козырьки 6 сезон

6 сезон

FAR CRY 6

RePack

Лицензия

MVO

1

1 сезон

1 сезон

Лицензия

  

Балто / Balto (Саймон Уэллс) [1995, мультфильм, драма, приключения, семейный, история, BDRip 720p от еnvy / NNNB] DUB, MVO, AVO

Балто через торрент pb.wtf

Раздают: 9 [ 0 KB/s ]
Размер: 4.36 GB | Добавлен: 5 лет 5 мес. назад | Торрент скачан:514 раз
Смотреть онлайн Балто | Скачать   

01-05-2017 07:01 Балто Скачать торрент  

Информация о фильме

Русское название: Балто
Оригинальное название: Balto
Год выхода: 1995
Жанр: мультфильм, драма, приключения, семейный, история
Режиссер: Саймон Уэллс
Выпущено: США
Продолжительность: 01:17:37
Перевод: Дублированный, Профессиональный (многоголосый, закадровый), Авторский (одноголосый, закадровый)
Роли озвучивали: Кевин Бейкон, Боб Хоскинс, Бриджит Фонда, Джим Каммингс, Фил Коллинз, Джек Эйнджел, Дэнни Манн, Робби Рист, Джульетт Брюэр, Сандра Дикинсон
Роли дублировали: Владимир Вихров, Андрей Бархударов, Ольга Гаспарова, Олег Куценко, Олег Форостенко, Виктор Петров, Людмила Гнилова, Андрей Казанцев
Сюжет мильтфильма

Наполовину лайка, наполовину волк, Балто и сам не знает кто он такой на самом деле. Всеми гонимый бродяга в ледяной пустыне Аляски. Только его друзья русский полярный гусь Борис, медвежата Мак и Лак и красавица-лайка Дженна уверены, что хотя он и не такой как все, но в его груди бьется благородное сердце.
Однажды случается несчастье. Эпидемия дифтерии охватила детей небольшого поселка, а свирепая вьюга сделала непроходимыми все дороги. Лишь собачья упряжка может преодолеть шестьсот миль через ослепляющий арктический шторм и привезти спасительное лекарство.
Но собаки сбились с дороги где-то на замерзших просторах. Теперь только Балто может найти упряжку и спасти детей, а заодно стать героем и настоящей легендой!


Файл

Качество: BDRip 720p (исходник Blu-Ray Disc)
Формат: MKV
Видео: 1280x694, 5051 Кбит/сек, 23,976 кадр/сек, AVC, x264, [email protected], 1.85:1, 0.237 Бит/[Пиксели*Кадры]
Аудио 1: AC-3, 192 Кбит/сек, 2 канала(ов), 48,0 КГц - Дублированный, ОРТ / Русский
Аудио 2: AC-3, 192 Кбит/сек, 2 канала(ов), 48,0 КГц - Многоголосый закадровый, СТС / Русский
Аудио 3: AC-3, 192 Кбит/сек, 2 канала(ов), 48,0 КГц - Многоголосый закадровый, ТК Россия / Русский
Аудио 4: AC-3, 192 Кбит/сек, 2 канала(ов), 48,0 КГц - Многоголосый закадровый, UPR/Премьер мультимедия / Русский
Аудио 5: AC-3, 384 Кбит/сек, 6 канала(ов), 48,0 КГц - Многоголосый закадровый / Русский
Аудио 6: AC-3, 192 Кбит/сек, 2 канала(ов), 48,0 КГц - Многоголосый закадровый, Интер / Русский
Аудио 7: AC-3, 192 Кбит/сек, 2 канала(ов), 48,0 КГц - Одноголосый закадровый, П. Санаев / Русский
Аудио 8: AC-3, 192 Кбит/сек, 2 канала(ов), 48,0 КГц - Одноголосый закадровый, Ю. Живов / Русский
Аудио 9: AC-3, 192 Кбит/сек, 2 канала(ов), 48,0 КГц - Одноголосый закадровый, М. Ошурков / Русский
Аудио 10: AC-3, 192 Кбит/сек, 2 канала(ов), 48,0 КГц - Одноголосый закадровый, Е. Байков / Русский
Аудио 11: AC-3, 448 Кбит/сек, 6 канала(ов), 48,0 КГц - Одноголосый закадровый, П. Гланц / Русский
Аудио 12: AC-3, 448 Кбит/сек, 6 канала(ов), 48,0 КГц - Оригинал / Английский
Субтитры: Русские | Полные, Английские | Полные
Форсированные субтитры: Нет
Чаптеры (Главы): Есть






Автор Рипа: Группа:


Format : Matroska
Format version : Version 2
File size : 4.36 GiB
Duration : 1 h 17 min
Overall bit rate : 8 044 kb/s
Movie name : Balto.(1995).BDRip.720p.[envy]
Encoded date : UTC 2017-05-01 06:06:51
Writing application : mkvmerge v5.8.0 ('No Sleep / Pillow') built on Sep 2 2012 15:37:04
Writing library : libebml v1.2.3 + libmatroska v1.3.0

Video
ID : 1
Format : AVC
Format/Info : Advanced Video Codec
Format profile : [email protected]
Format settings, CABAC : Yes
Format settings, ReFrames : 9 frames
Codec ID : V_MPEG4/ISO/AVC
Duration : 1 h 17 min
Bit rate : 5 051 kb/s
Width : 1 280 pixels
Height : 694 pixels
Display aspect ratio : 1.85:1
Frame rate mode : Constant
Frame rate : 23.976 (24000/1001) FPS
Color space : YUV
Chroma subsampling : 4:2:0
Bit depth : 8 bits
Scan type : Progressive
Bits/(Pixel*Frame) : 0.237
Stream size : 2.64 GiB (61%)
Title : Balto.(1995).BDRip.720p.[envy]
Writing library : x264 core 148 r2744 b97ae06
Encoding settings : cabac=1 / ref=9 / deblock=1:-3:-3 / analyse=0x3:0x133 / me=umh / subme=11 / psy=1 / psy_rd=1.00:0.07 / mixed_ref=1 / me_range=32 / chroma_me=1 / trellis=2 / 8x8dct=1 / cqm=0 / deadzone=21,11 / fast_pskip=0 / chroma_qp_offset=-3 / threads=12 / lookahead_threads=1 / sliced_threads=0 / nr=0 / decimate=1 / interlaced=0 / bluray_compat=0 / constrained_intra=0 / bframes=5 / b_pyramid=2 / b_adapt=2 / b_bias=0 / direct=3 / weightb=1 / open_gop=0 / weightp=2 / keyint=240 / keyint_min=23 / scenecut=40 / intra_refresh=0 / rc=2pass / mbtree=0 / bitrate=5051 / ratetol=2.0 / qcomp=0.60 / qpmin=0 / qpmax=69 / qpstep=4 / cplxblur=20.0 / qblur=0.5 / ip_ratio=1.40 / pb_ratio=1.30 / aq=1:0.65
Language : English
Default : Yes
Forced : No

Audio #1
ID : 2
Format : AC-3
Format/Info : Audio Coding 3
Format settings, Endianness : Big
Codec ID : A_AC3
Duration : 1 h 17 min
Bit rate mode : Constant
Bit rate : 192 kb/s
Channel(s) : 2 channels
Channel positions : Front: L R
Sampling rate : 48.0 kHz
Frame rate : 31.250 FPS (1536 spf)
Bit depth : 16 bits
Compression mode : Lossy
Stream size : 107 MiB (2%)
Title : Dub, ОРТ
Language : Russian
Service kind : Complete Main
Default : Yes
Forced : No

Audio #2
ID : 3
Format : AC-3
Format/Info : Audio Coding 3
Format settings, Endianness : Big
Codec ID : A_AC3
Duration : 1 h 17 min
Bit rate mode : Constant
Bit rate : 192 kb/s
Channel(s) : 2 channels
Channel positions : Front: L R
Sampling rate : 48.0 kHz
Frame rate : 31.250 FPS (1536 spf)
Bit depth : 16 bits
Compression mode : Lossy
Stream size : 107 MiB (2%)
Title : MVO, СТС
Language : Russian
Service kind : Complete Main
Default : No
Forced : No

Audio #3
ID : 4
Format : AC-3
Format/Info : Audio Coding 3
Format settings, Endianness : Big
Codec ID : A_AC3
Duration : 1 h 17 min
Bit rate mode : Constant
Bit rate : 192 kb/s
Channel(s) : 2 channels
Channel positions : Front: L R
Sampling rate : 48.0 kHz
Frame rate : 31.250 FPS (1536 spf)
Bit depth : 16 bits
Compression mode : Lossy
Stream size : 107 MiB (2%)
Title : MVO, ТК Россия
Language : Russian
Service kind : Complete Main
Default : No
Forced : No

Audio #4
ID : 5
Format : AC-3
Format/Info : Audio Coding 3
Format settings, Endianness : Big
Codec ID : A_AC3
Duration : 1 h 17 min
Bit rate mode : Constant
Bit rate : 192 kb/s
Channel(s) : 2 channels
Channel positions : Front: L R
Sampling rate : 48.0 kHz
Frame rate : 31.250 FPS (1536 spf)
Bit depth : 16 bits
Compression mode : Lossy
Stream size : 107 MiB (2%)
Title : MVO, UPR/Премьем мультимедия
Language : Russian
Service kind : Complete Main
Default : No
Forced : No

Audio #5
ID : 6
Format : AC-3
Format/Info : Audio Coding 3
Format settings, Endianness : Big
Codec ID : A_AC3
Duration : 1 h 17 min
Bit rate mode : Constant
Bit rate : 384 kb/s
Channel(s) : 6 channels
Channel positions : Front: L C R, Side: L R, LFE
Sampling rate : 48.0 kHz
Frame rate : 31.250 FPS (1536 spf)
Bit depth : 16 bits
Compression mode : Lossy
Stream size : 213 MiB (5%)
Title : MVO
Language : Russian
Service kind : Complete Main
Default : No
Forced : No

Audio #6
ID : 7
Format : AC-3
Format/Info : Audio Coding 3
Format settings, Endianness : Big
Codec ID : A_AC3
Duration : 1 h 17 min
Bit rate mode : Constant
Bit rate : 192 kb/s
Channel(s) : 2 channels
Channel positions : Front: L R
Sampling rate : 48.0 kHz
Frame rate : 31.250 FPS (1536 spf)
Bit depth : 16 bits
Compression mode : Lossy
Stream size : 107 MiB (2%)
Title : MVO, Интер
Language : Russian
Service kind : Complete Main
Default : No
Forced : No

Audio #7
ID : 8
Format : AC-3
Format/Info : Audio Coding 3
Format settings, Endianness : Big
Codec ID : A_AC3
Duration : 1 h 17 min
Bit rate mode : Constant
Bit rate : 192 kb/s
Channel(s) : 2 channels
Channel positions : Front: L R
Sampling rate : 48.0 kHz
Frame rate : 31.250 FPS (1536 spf)
Bit depth : 16 bits
Compression mode : Lossy
Stream size : 107 MiB (2%)
Title : AVO, П. Санаев
Language : Russian
Service kind : Complete Main
Default : No
Forced : No

Audio #8
ID : 9
Format : AC-3
Format/Info : Audio Coding 3
Format settings, Endianness : Big
Codec ID : A_AC3
Duration : 1 h 17 min
Bit rate mode : Constant
Bit rate : 192 kb/s
Channel(s) : 2 channels
Channel positions : Front: L R
Sampling rate : 48.0 kHz
Frame rate : 31.250 FPS (1536 spf)
Bit depth : 16 bits
Compression mode : Lossy
Stream size : 107 MiB (2%)
Title : AVO, Ю. Живов
Language : Russian
Service kind : Complete Main
Default : No
Forced : No

Audio #9
ID : 10
Format : AC-3
Format/Info : Audio Coding 3
Format settings, Endianness : Big
Codec ID : A_AC3
Duration : 1 h 17 min
Bit rate mode : Constant
Bit rate : 192 kb/s
Channel(s) : 2 channels
Channel positions : Front: L R
Sampling rate : 48.0 kHz
Frame rate : 31.250 FPS (1536 spf)
Bit depth : 16 bits
Compression mode : Lossy
Stream size : 107 MiB (2%)
Title : AVO, М. Ошурков
Language : Russian
Service kind : Complete Main
Default : No
Forced : No

Audio #10
ID : 11
Format : AC-3
Format/Info : Audio Coding 3
Format settings, Endianness : Big
Codec ID : A_AC3
Duration : 1 h 17 min
Bit rate mode : Constant
Bit rate : 192 kb/s
Channel(s) : 2 channels
Channel positions : Front: L R
Sampling rate : 48.0 kHz
Frame rate : 31.250 FPS (1536 spf)
Bit depth : 16 bits
Compression mode : Lossy
Stream size : 107 MiB (2%)
Title : AVO, Е. Байков
Language : Russian
Service kind : Complete Main
Default : No
Forced : No

Audio #11
ID : 12
Format : AC-3
Format/Info : Audio Coding 3
Format settings, Endianness : Big
Codec ID : A_AC3
Duration : 1 h 17 min
Bit rate mode : Constant
Bit rate : 448 kb/s
Channel(s) : 6 channels
Channel positions : Front: L C R, Side: L R, LFE
Sampling rate : 48.0 kHz
Frame rate : 31.250 FPS (1536 spf)
Bit depth : 16 bits
Compression mode : Lossy
Stream size : 249 MiB (6%)
Title : AVO, П. Гланц
Language : Russian
Service kind : Complete Main
Default : No
Forced : No

Audio #12
ID : 13
Format : AC-3
Format/Info : Audio Coding 3
Format settings, Endianness : Big
Codec ID : A_AC3
Duration : 1 h 17 min
Bit rate mode : Constant
Bit rate : 448 kb/s
Channel(s) : 6 channels
Channel positions : Front: L C R, Side: L R, LFE
Sampling rate : 48.0 kHz
Frame rate : 31.250 FPS (1536 spf)
Bit depth : 16 bits
Compression mode : Lossy
Stream size : 249 MiB (6%)
Title : Eng
Language : English
Service kind : Complete Main
Default : No
Forced : No

Text #1
ID : 14
Format : UTF-8
Codec ID : S_TEXT/UTF8
Codec ID/Info : UTF-8 Plain Text
Title : Rus full SDH
Language : Russian
Default : No
Forced : No

Text #2
ID : 15
Format : UTF-8
Codec ID : S_TEXT/UTF8
Codec ID/Info : UTF-8 Plain Text
Title : Eng full SDH
Language : English
Default : No
Forced : No

Menu
00:00:00.000 : :Chapter 01
00:09:51.006 : :Chapter 02
00:19:07.145 : :Chapter 03
00:31:06.030 : :Chapter 04
00:40:07.530 : :Chapter 05
00:48:47.632 : :Chapter 06
00:58:10.403 : :Chapter 07
01:10:34.271 : :Chapter 08




Скачать Балто через торрент http://img11.lostpic.net/2017/04/30/de9f343f268db2ebe0b9d07b9f83c3fb.png Скачать, смотреть онлайн Балто бесплантно в хорошем качестве Информация о фильмеРусское название: БалтоОригинальное название: BaltoГод выхода: 1995Жанр: мультфильм, драма, приключения, семейный, ... 9.9 10 13
Info! Золотая раздача, скачанное не засчитывается.
Торрент: Зарегистрирован [2017-05-01 07:01] · скачан: 514 раз
Статус: √ проверено
Размер: 4.36 GB
Как cкачать? Как скачать Балто через торрент | UTorrent

% Раздел Тема Автор DL S | L
Зарубежные Мультфильмы (BDRip 1080p, 720p, Blu-ray, BD-Remux) [ 7.74 GB ] Балто / Balto | DUB | 1080p от еnvy / NNNB еnvy Скачать
1 | 0

28-11-2019 20:33  

Отключить вcю реклaмy на сайте

01-05-2017 07:04 Балто Скачать торрент  

22-06-2017 12:42 Балто Скачать торрент  

Хороший мультик. Как и многие того времени.



    Дорогой пользователь! Огромная просьба, поблагодарите релизера, оцените раздачу и оставьте свои комментарий, если Вы скачали Балто через торрент бесплатно!!
    Комментировать посты могут только пользователи прошедшие не сложную регистрацию
    Показать сообщения:    


    Балто через торрент
    Скачать бесплатно Балто
    Балто скачать торрент
    Балто смотреть онлайн
    Cкачать фильм Балто бесплатно
    Балто скачать торрент в хорошем качестве
    Балто смотреть онлайн бесплатно в хорошем качестве
    Вы не можете начинать темы
    Вы не можете отвечать на сообщения
    Вы не можете редактировать свои сообщения
    Вы не можете удалять свои сообщения
    Вы не можете голосовать в опросах
    Вы не можете прикреплять файлы к сообщениям
    Вы можете скачивать файлы