новый адрес
Ссылка на приватное зеркало всего за 1$. Внимание количество ограничено!!!

iTunes

1+1

iTunes

мы

iTunes

1

iTunes

Чернобыль

iTunes

Ральф против интернета

Лицензия

ПШазам

Лицензия

Оно 2

Лицензия

30
pack

Вам бонус

ВАЖНО

!!Акция!!

Alien_RageХит недели

RePack

Resident Evil 21

ИГРА 18+

pack

RePack

jed

!!Акция!!

Alien_Rage

RePack

fifa19

RePack

Assassins Creed: Odyssey

RePack

NEED FOR SPEED™ PAYBACK

3 сезон

9 сезон

Бесстыжие 9 сезон

Все сериалы

все сериалы на PB.wtf

RePack

FAR CRY 5
Ребята, катастрофически не хватает 1900р. для оплаты серверов за Октябрь (всвязи с блокировками трафик упал в 3 раза), 1-2р., выручайте.
  

Соединенные штаты любви / Zjednoczone stany milosci (Томаш Василевский) [2016 г., Арт-хаус, Авторское кино, Драма, HDRip, Любительский (многоголосый) GreenРай Studio] pb.wtf

Соединенные штаты любви через торрент pb.wtf

Размер: 1.46 GB | Добавлен: 2 года 7 мес. назад | Торрент скачан:71 раз
Скачать  

01-05-2017 16:26 Соединенные штаты любви Скачать торрент  

Соединенные штаты любви / Zjednoczone stany milosci
Год выпуска: 2016
Страна: Польша, Швеция
Жанр: Арт-хаус, Авторское кино, Драма
Продолжительность: 01:41:32
Перевод: Любительский (многоголосый) GreenРай Studio
Субтитры: нет

Режиссер: Томаш Василевский

Премьера в мире: 20.05.2016

В ролях: Юлия Киёвская, Магдалена Целецка, Дорота Коляк, Марта Нерадкевич, Томаш Тындык, Анджей Хыра, Лукаш Симлат, Марцин Чарнецки, Йеджей Велецки

Описание: Польша, начало 1990 года. Несмотря на наступившую свободу, всё время чувствуется дух прошлой эпохи. Четырёх, на первый взгляд, счастливых женщин разного возраста связывает непреодолимое желание изменить свою жизнь. Агата, молодая мать, живущая в браке без страсти, ищет возможности бежать за несбыточной любовью. Учительница Рената увлечена своей молодой соседкой Маженой — провинциальной королевой красоты, муж которой работает в Германии. Сестра Мажены Иза работает директором школы и тайно встречается с отцом одной из учениц…

Доп. информация:
Присутствует реклама

сэмпл http://sendfile.su/1329938

Качество: HDRip
Формат: AVI
Видео кодек: DivX
Аудио кодек: AC3
Видео: 720x320 (2.25:1), 25 fps, DivX 5 ~1850 kbps avg, 0.32 bit/pixel
Аудио#1: 48 kHz, AC3 Dolby Digital, 2/0 (L,R) ch, ~192 kbps







Общее
Полное имя : F:\Zjednoczone.stany.milosci_20160.HDRip.avi
Формат : AVI
Формат/Информация : Audio Video Interleave
Размер файла : 1,46 Гбайт
Продолжительность : 1 ч. 41 м.
Общий поток : 2053 Кбит/сек
Программа кодирования : VirtualDubMod 1.5.10.3 | www.virtualdub-fr.org || (build 2550/release)
Библиотека кодирования : VirtualDubMod build 2550/release

Видео
Идентификатор : 0
Формат : MPEG-4 Visual
Профиль формата : Advanced Simple@L5
Параметр BVOP формата : 1
Параметр QPel формата : Нет
Параметр GMC формата : Без точки перехода
Параметр матрицы формата : Default (MPEG)
Идентификатор кодека : DX50
Идентификатор кодека/Подсказка : DivX 5
Продолжительность : 1 ч. 41 м.
Битрейт : 1851 Кбит/сек
Ширина : 720 пикселей
Высота : 320 пикселей
Соотношение сторон : 2,25:1
Частота кадров : 25,000 кадров/сек
Цветовое пространство : YUV
Субдискретизация насыщенности : 4:2:0
Битовая глубина : 8 бит
Тип развёртки : Прогрессивная
Метод сжатия : С потерями
Бит/(Пиксели*Кадры) : 0.321
Размер потока : 1,31 Гбайт (90%)
Библиотека кодирования : XviD 1.2.1 (UTC 2008-12-04)

Аудио
Идентификатор : 1
Формат : AC-3
Формат/Информация : Audio Coding 3
Параметр Endianness формата : Big
Идентификатор кодека : 2000
Продолжительность : 1 ч. 41 м.
Вид битрейта : Постоянный
Битрейт : 192 Кбит/сек
Каналы : 2 канала
Расположение каналов : Front: L R
Частота : 48,0 КГц
Частота кадров : 31,250 кадров/сек (1536 spf)
Битовая глубина : 16 бит
Метод сжатия : С потерями
Размер потока : 139 Мбайт (9%)
Выравнивание : Разделение по промежуткам
Продолжительность промежутка : 40 мс. (1,00 видеокадр)
Время предзагрузки промежутка : 500 мс.
ServiceKind/String : Complete Main

pb.wtf



Скачать Соединенные штаты любви через торрент http://i91.fastpic.ru/big/2017/0430/a9/b99d8d269dc1162b54a0bf1291eb76a9.jpg Скачать фильм Соединенные штаты любви через торрент бесплантно в хорошем качестве Описание: Польша, начало 1990 года. Несмотря на наступившую свободу, всё время чувствуется дух прошлой эпохи. Четырёх, на первый взгляд, ... 10 10 1
Торрент: Зарегистрирован [2017-05-01 16:26] · скачан: 71 раз
Статус: T временная
Размер: 1.46 GB
Как cкачать? Как скачать Соединенные штаты любви через торрент | qTorrent

28-11-2019 20:33  

Отключить всю рекламу на сайте

    Дорогой пользователь! Огромная просьба, поблагодарите релизера, оцените раздачу и оставьте свои комментарий, если Вы скачали Соединенные штаты любви через торрент бесплатно! Внесите свою лепту в развитие PiratBit!
    Комментировать посты могут только пользователи прошедшие не сложную регистрацию
    Показать сообщения:    

    Соединенные штаты любви через торрент
    Скачать бесплатно Соединенные штаты любви
    Соединенные штаты любви скачать торрент
    Соединенные штаты любви смотреть онлайн
    Cкачать фильм Соединенные штаты любви бесплатно
    Соединенные штаты любви скачать торрент в хорошем качестве
    Соединенные штаты любви смотреть онлайн бесплатно в хорошем качестве


    Вы не можете начинать темы
    Вы не можете отвечать на сообщения
    Вы не можете редактировать свои сообщения
    Вы не можете удалять свои сообщения
    Вы не можете голосовать в опросах
    Вы не можете прикреплять файлы к сообщениям
    Вы можете скачивать файлы