2 сезон

iTunes

MVO

1

2 сезон

iTunes

iTunes

1 сезон

RePack

30

Новинка

ВАЖНО

ИГРА 18+

pack

RePack

MK11
pack

Легкие деньги

RePack

jed

RePack

fifa19

RePack

RDR2

RePack

NEED FOR SPEED™ PAYBACK

4 сезон

9 сезон

Бесстыжие 9 сезон

Все сериалы

все сериалы на PB.wtf

RePack

FAR CRY 5

Anonymous, доброй ночи, мы не успеваем собрать деньги на оплату серверов за декабрь и январь, помогите нам пожалуйста в это трудное время. В качестве благодарности мы отключим Вам всю рекламу на сайте (укажите свой ник в строку Ваше имя)!

×
  
Magnet ссылка

Космос между нами / The Space Between Us (Питер Челсом) [2017 г., фантастика, драма, мелодрама, приключения, HDRip-AVC] Дубляж [iTunes] - ExKinoRay pb.wtf

Космос между нами через торрент pb.wtf

Размер: 2.28 GB | Добавлен: 3 года 8 мес. назад | Торрент скачан:502 раза
Скачать  

02-05-2017 02:53 Космос между нами Скачать торрент  

Информация о фильме
Название: Космос между нами
Оригинальное название: The Space Between Us
Год выпуска: 2017
Страна: США
Студия: Los Angeles Media Fund (LAMF), Robert Simonds Company, The, Southpaw Entertainment
Жанр: Фантастика, драма, мелодрама, приключения
Продолжительность: 02:00:43
Перевод: Дублированный | iTunes
Субтитры: Английские
Режиссер: Питер Челсом
В ролях: Бритт Робертсон, Гэри Олдман, Эйса Баттерфилд, Джанет Монтгомери, Трей Такер, Скотт Такеда, Сара Минник, Райан Джейсон Кук, Б. Д. Вонг, Лорен Майерс

Описание: Межгалактическая история любви земной девушки и Гарднера Эллиота, выросшего в экспериментальной колонии на Марсе. Их роман начался в интернете, и теперь Эллиот летит на Землю, чтобы встретиться с возлюбленной...

rating

Файл
Качество: HDRip-AVC
Видео: MPEG-4 AVC, 1024x426 (2.40:1), 23.976 fps, ~ 1876 kbps avg, 0.179 bit/pixel
Аудио1: AC-3, 48.0 KHz, 5.1 ch, 384 Kbps, CBR (Russian)
Аудио2: AC-3, 48.0 KHz, 5.1 ch, 448 Kbps, CBR (English)
General
Unique ID : 226058083950723917525419916020882612056 (0xAA11340BCE6B9082BC58D0138A681F58)
Complete name : D:\The.Space.Between.Us.2017.HDRip.AVC.ExKinoRay.mkv
Format : Matroska
Format version : Version 2
File size : 2.28 GiB
Duration : 2 h 0 min
Overall bit rate : 2 710 kb/s
Movie name : The Space Between Us (2017) from ExKinoRay
Encoded date : UTC 2017-05-04 11:01:20
Writing application : mkvmerge v5.8.0 ('No Sleep / Pillow') built on Sep 2 2012 15:37:04
Writing library : libebml v1.2.3 + libmatroska v1.3.0

Video
ID : 1
Format : AVC
Format/Info : Advanced Video Codec
Format profile : High@L4.1
Format settings, CABAC : Yes
Format settings, ReFrames : 12 frames
Codec ID : V_MPEG4/ISO/AVC
Duration : 2 h 0 min
Bit rate : 1 876 kb/s
Width : 1 024 pixels
Height : 426 pixels
Display aspect ratio : 2.40:1
Frame rate mode : Constant
Frame rate : 23.976 (24000/1001) FPS
Color space : YUV
Chroma subsampling : 4:2:0
Bit depth : 8 bits
Scan type : Progressive
Bits/(Pixel*Frame) : 0.179
Stream size : 1.54 GiB (67%)
Title : Enigma
Writing library : x264 core 144 r2525 40bb568
Encoding settings : cabac=1 / ref=12 / deblock=1:-2:-3 / analyse=0x3:0x113 / me=umh / subme=10 / psy=1 / psy_rd=1.00:0.05 / mixed_ref=1 / me_range=32 / chroma_me=1 / trellis=2 / 8x8dct=1 / cqm=0 / deadzone=21,11 / fast_pskip=1 / chroma_qp_offset=-3 / threads=12 / lookahead_threads=3 / sliced_threads=0 / nr=0 / decimate=0 / interlaced=0 / bluray_compat=0 / constrained_intra=0 / bframes=10 / b_pyramid=2 / b_adapt=2 / b_bias=0 / direct=3 / weightb=1 / open_gop=0 / weightp=2 / keyint=240 / keyint_min=23 / scenecut=40 / intra_refresh=0 / rc_lookahead=40 / rc=2pass / mbtree=0 / bitrate=1876 / ratetol=1.0 / qcomp=0.60 / qpmin=0 / qpmax=51 / qpstep=4 / cplxblur=20.0 / qblur=0.5 / vbv_maxrate=50000 / vbv_bufsize=62500 / nal_hrd=none / filler=0 / ip_ratio=1.40 / pb_ratio=1.30 / aq=1:1.00
Language : English
Default : Yes
Forced : No
Color range : Limited
Color primaries : BT.709
Transfer characteristics : BT.709
Matrix coefficients : BT.709

Audio #1
ID : 2
Format : AC-3
Format/Info : Audio Coding 3
Mode extension : CM (complete main)
Format settings, Endianness : Big
Codec ID : A_AC3
Duration : 2 h 0 min
Bit rate mode : Constant
Bit rate : 384 kb/s
Channel(s) : 6 channels
Channel positions : Front: L C R, Side: L R, LFE
Sampling rate : 48.0 kHz
Frame rate : 31.250 FPS (1536 spf)
Compression mode : Lossy
Stream size : 332 MiB (14%)
Title : Dub (iTunes)
Language : Russian
Default : Yes
Forced : No

Audio #2
ID : 3
Format : AC-3
Format/Info : Audio Coding 3
Mode extension : CM (complete main)
Format settings, Endianness : Big
Codec ID : A_AC3
Duration : 2 h 0 min
Bit rate mode : Constant
Bit rate : 448 kb/s
Channel(s) : 6 channels
Channel positions : Front: L C R, Side: L R, LFE
Sampling rate : 48.0 kHz
Frame rate : 31.250 FPS (1536 spf)
Compression mode : Lossy
Stream size : 387 MiB (17%)
Language : English
Default : No
Forced : No

Text
ID : 4
Format : UTF-8
Codec ID : S_TEXT/UTF8
Codec ID/Info : UTF-8 Plain Text
Language : English
Default : No
Forced : No

Menu
00:00:00.000 : en:00:00:00.000
00:06:16.126 : en:00:06:16.126
00:11:09.210 : en:00:11:09.210
00:18:50.129 : en:00:18:50.129
00:23:06.176 : en:00:23:06.176
00:28:49.686 : en:00:28:49.686
00:33:10.030 : en:00:33:10.030
00:38:24.093 : en:00:38:24.093
00:43:59.804 : en:00:43:59.804
00:49:44.607 : en:00:49:44.607
00:53:36.797 : en:00:53:36.797
00:58:50.736 : en:00:58:50.736
01:06:48.254 : en:01:06:48.254
01:15:40.327 : en:01:15:40.327
01:22:24.523 : en:01:22:24.523
01:30:11.364 : en:01:30:11.364
01:36:16.062 : en:01:36:16.062
01:43:41.215 : en:01:43:41.215
01:48:45.728 : en:01:48:45.728
01:53:45.402 : en:01:53:45.402
Релиз от:

Автор релиза: pb.wtf



Скачать Космос между нами через торрент http://i91.fastpic.ru/big/2017/0325/24/5cc800fa95a5412e83b9a6a0a4de9424.jpg Скачать фильм Космос между нами через торрент бесплантно в хорошем качестве Описание: Межгалактическая история любви земной девушки и Гарднера Эллиота, выросшего в экспериментальной колонии на Марсе. Их роман ... 9.9 10 25
Info! Золотая раздача, скачанное не засчитывается.
Торрент: Зарегистрирован [2017-05-04 12:07] · скачан: 502 раз
Статус: √ проверено
Размер: 2.28 GB
Как cкачать? Как скачать Космос между нами через торрент | UTorrent



Последний раз редактировалось: Enigma2010 (2017-05-04 12:11), всего редактировалось 3 раз(а)

28-11-2019 20:33  

Отключить всю рекламу на сайте

02-05-2017 07:55 Космос между нами Скачать торрент  

В общем фильм ничего.Спокойный и снят хорошо.Можно смотреть.pb.wtf



02-05-2017 08:37 Космос между нами Скачать торрент  

Фильм конечно очень наивный, но от этого хуже не становится. Посмотрел с удовольствием.pb.wtf



04-05-2017 20:54 Космос между нами Скачать торрент  

впорядкеpb.wtf



05-05-2017 03:56 Космос между нами Скачать торрент  

ГОДНЫЙ ! =))))))pb.wtf



05-05-2017 04:02 Космос между нами Скачать торрент  

мальчишке спортом подзаняться надо бы, вроде повзрослел ,а тело как у ребёнка 10 летнего ,ну или есть побольше что ли?имхоpb.wtf



05-05-2017 05:35 Космос между нами Скачать торрент  

Присоединяюсьpb.wtf



    Дорогой пользователь! Огромная просьба, поблагодарите релизера, оцените раздачу и оставьте свои комментарий, если Вы скачали Космос между нами через торрент бесплатно! Внесите свою лепту в развитие PiratBit!
    Комментировать посты могут только пользователи прошедшие не сложную регистрацию
    Показать сообщения:    

    Космос между нами через торрент
    Скачать бесплатно Космос между нами
    Космос между нами скачать торрент
    Космос между нами смотреть онлайн
    Cкачать фильм Космос между нами бесплатно
    Космос между нами скачать торрент в хорошем качестве
    Космос между нами смотреть онлайн бесплатно в хорошем качестве


    Вы не можете начинать темы
    Вы не можете отвечать на сообщения
    Вы не можете редактировать свои сообщения
    Вы не можете удалять свои сообщения
    Вы не можете голосовать в опросах
    Вы не можете прикреплять файлы к сообщениям
    Вы можете скачивать файлы