Ссылка на приватное зеркало нашего сайта всего за 1$. Внимание количество ограничено!!!

2 сезон

iTunes

1 сезон

1

2 сезон

2 сезон

iTunes

1 сезон

RePack

30

Ultimate

ВАЖНО

ИГРА 18+

pack

RePack

MK11
pack

Забери бонус

RePack

jed

!!Акция!!

Alien_Rage

RePack

fifa19

RePack

Assassins Creed: Odyssey

RePack

NEED FOR SPEED™ PAYBACK

4 сезон

9 сезон

Бесстыжие 9 сезон

Все сериалы

все сериалы на PB.wtf

RePack

FAR CRY 5
  

Сан Рекордс / Sun Records / Сезон: 1 / Серии 1-8 из 8 (Роланд Жоффе) [2017, драма, музыкальный, WEBRip] [MVO] (Jaskier) pb.wtf

Сан Рекордс через торрент pb.wtf

Размер: 3.91 GB | Добавлен: 3 года 6 мес. назад | Торрент скачан:12 раз
Скачать  

02-05-2017 07:56 Сан Рекордс Скачать торрент  

Сан Рекордс | Sun Records
Год выпуска: 2017
Страна: США
Жанр: Драма, музыкальный
Продолжительность: ~ 00:45:00
Перевод: Профессиональный (многоголосый закадровый) | Jaskier

Режиссёр: Роланд Жоффе

В ролях: Кейр О’Доннелл, Маргарет Энн Флоренс, Кевин Фонтейн, Билли Гарделл, Дженнифер Холлэнд, Кристиан Лис и др.

Описание: Sun Records - это один из известнейших в США лейблов, который принес славу своим основателям в тысяча девятьсот пятьдесят втором году. В центре внимания оказывается руководитель группы-создателя лейбла Сэм Филлипс. Дело было в Мемфисе. Именно у этого человека некогда записывали свои первые альбомы такие известные ныне личности, как Элвис Пресли, Джонни Кэш, Джерри Ли Льюис и Карл Перкинс. Эти годы считаются временами зарождения рока, каким мы его знаем сегодня. Сериал рассказывает о прошлом целого музыкального направления, которое стало безумно популярным среди слушателей всех возрастов и взглядов.


Качество: WEBRip
Формат: AVI
Видео: XviD, ~ 1400 kbps, 704x384 (1,85:1), 23.976 fps
Аудио 1: MP3, 48,0 КГц, 2 ch, 128 kbps - Rus
Аудио 2: MP3, 48,0 КГц, 2 ch, 128 kbps - Eng
Субтитры: русские - на надписи
Переведено и озвучено: студией Jaskier
Общее
Полное имя                               : H:\Ясы-сериалы\Sun Records. Season 1 (WEBRip l 400p l Jaskier)\Sun.Records.S01E01.WEBRip.XviD.Rus.Eng.Jaskier.avi
Формат                                   : AVI
Формат/Информация                        : Audio Video Interleave
Размер файла                             : 501 Мбайт
Продолжительность                        : 41 м. 9 с.
Общий поток                              : 1701 Кбит/сек
Программа кодирования                    : VirtualDubMod 1.5.10.3 | www.virtualdub-fr.org || (build 2550/release)
Библиотека кодирования                   : VirtualDubMod build 2550/release
Видео
Идентификатор                            : 0
Формат                                   : MPEG-4 Visual
Профиль формата                          : Advanced Simple@L5
Параметр BVOP формата                    : 1
Параметр QPel формата                    : Нет
Параметр GMC формата                     : Без точки перехода
Параметр матрицы формата                 : Default (MPEG)
Идентификатор кодека                     : XVID
Идентификатор кодека/Подсказка           : XviD
Продолжительность                        : 41 м. 9 с.
Битрейт                                  : 1431 Кбит/сек
Ширина                                   : 704 пикселя
Высота                                   : 384 пикселя
Соотношение сторон                       : 1,85:1
Частота кадров                           : 23,976 (24000/1001) кадра/сек
Цветовое пространство                    : YUV
Субдискретизация насыщенности            : 4:2:0
Битовая глубина                          : 8 бит
Тип развёртки                            : Прогрессивная
Метод сжатия                             : С потерями
Бит/(Пиксели*Кадры)                      : 0.221
Размер потока                            : 421 Мбайт (84%)
Библиотека кодирования                   : XviD 73
Аудио #1
Идентификатор                            : 1
Формат                                   : MPEG Audio
Версия формата                           : Version 1
Профиль формата                          : Layer 3
Режим                                    : Joint stereo
Расширение режима                        : MS Stereo
Идентификатор кодека                     : 55
Идентификатор кодека/Подсказка           : MP3
Продолжительность                        : 41 м. 9 с.
Вид битрейта                             : Постоянный
Битрейт                                  : 128 Кбит/сек
Каналы                                   : 2 канала
Частота                                  : 48,0 КГц
Метод сжатия                             : С потерями
Размер потока                            : 37,7 Мбайт (8%)
Выравнивание                             : Соединение по промежуткам
Продолжительность промежутка             : 42  мс. (1,00 видеокадр)
Время предзагрузки промежутка            : 504  мс.
Аудио #2
Идентификатор                            : 2
Формат                                   : MPEG Audio
Версия формата                           : Version 1
Профиль формата                          : Layer 3
Режим                                    : Joint stereo
Расширение режима                        : MS Stereo
Идентификатор кодека                     : 55
Идентификатор кодека/Подсказка           : MP3
Продолжительность                        : 41 м. 9 с.
Вид битрейта                             : Постоянный
Битрейт                                  : 128 Кбит/сек
Каналы                                   : 2 канала
Частота                                  : 48,0 КГц
Метод сжатия                             : С потерями
Размер потока                            : 37,7 Мбайт (8%)
Выравнивание                             : Соединение по промежуткам
Продолжительность промежутка             : 42  мс. (1,00 видеокадр)
Время предзагрузки промежутка            : 504  мс.
Когда раздача ведётся путём добавления новых серий, при каждом добавлении создётся новый торрент. Чтобы начать докачку новой серии, пользователям необходимо сделать следующее:
(1) остановить скачивание,
(2) удалить старый торрент у себя из клиента (старые серии удалять не надо),
(3) скачать новый торрент и запустить его у себя в клиенте вместо старого, при этом указать клиенту путь в старую папку, куда и должно происходить скачивание новых серий.
Ваш клиент при этом должен произвести хеширование (проверку) старой папки (если не производит сам - помогите ему сделать это), и будет докачивать только те серии, которых у вас ещё нет. Старые серии при этом не удаляются, а продолжают раздаваться!
Eсли вы уже удалили старые серии, то предотвратить повторную закачку старых серий можно, отжав галочку в соответсвующих местах при запуске нового торрента. По возможности, желательно не удалять старые серии как можно дольше, чтобы релизёр не столько продолжал раздавать старые серии, а смог сконцентрироваться на новых.
pb.wtf



Скачать Сан Рекордс через торрент http://i89.fastpic.ru/big/2017/0501/71/165a798248b82961683849bbbc48ff71.png Скачать фильм Сан Рекордс через торрент бесплантно в хорошем качестве Описание: Sun Records - это один из известнейших в США лейблов, который принес славу своим основателям в тысяча девятьсот пятьдесят втором ... 8 10 1
Торрент: Зарегистрирован [2017-05-14 08:52] · скачан: 12 раз
Статус: √ проверено
Размер: 3.91 GB
Как cкачать? Как скачать Сан Рекордс через торрент | qTorrent

% Раздел Тема Автор DL S | L
Зарубежные сериалы [ 6.34 GB ] Сан Рекордс / Sun Records / Сезон: 1 / Серии 1-8 из 8 [2017 музыкальный WEBRip 720p] [MVO] killermax2013 Скачать
1 | 0

28-11-2019 20:33  

Отключить всю рекламу на сайте

    Дорогой пользователь! Огромная просьба, поблагодарите релизера, оцените раздачу и оставьте свои комментарий, если Вы скачали Сан Рекордс через торрент бесплатно! Внесите свою лепту в развитие PiratBit!
    Комментировать посты могут только пользователи прошедшие не сложную регистрацию
    Показать сообщения:    

    Сан Рекордс через торрент
    Скачать бесплатно Сан Рекордс
    Сан Рекордс скачать торрент
    Сан Рекордс смотреть онлайн
    Cкачать фильм Сан Рекордс бесплатно
    Сан Рекордс скачать торрент в хорошем качестве
    Сан Рекордс смотреть онлайн бесплатно в хорошем качестве


    Вы не можете начинать темы
    Вы не можете отвечать на сообщения
    Вы не можете редактировать свои сообщения
    Вы не можете удалять свои сообщения
    Вы не можете голосовать в опросах
    Вы не можете прикреплять файлы к сообщениям
    Вы можете скачивать файлы