Ссылка на приватное зеркало нашего сайта всего за 1$. Внимание количество ограничено!!!

2 сезон

iTunes

1 сезон

1

2 сезон

2 сезон

iTunes

1 сезон

RePack

30

Новинка

ВАЖНО

ИГРА 18+

pack

RePack

MK11
pack

Забери бонус

RePack

jed

!!Акция!!

Alien_Rage

RePack

fifa19

RePack

Assassins Creed: Odyssey

RePack

NEED FOR SPEED™ PAYBACK

4 сезон

9 сезон

Бесстыжие 9 сезон

Все сериалы

все сериалы на PB.wtf

RePack

FAR CRY 5
  

Американские боги / American Gods / Сезон: 1 / Серии 1-8 из 8 (Дэвид Слэйд) [2017, фэнтези, детектив, драма, WEBRip] [MVO] (AlexFilm) pb.wtf

Американские боги через торрент pb.wtf

Размер: 5.42 GB | Добавлен: 3 года 5 мес. назад | Торрент скачан:260 раз
Скачать  

02-05-2017 09:48 Американские боги Скачать торрент  

Американские богиAmerican Gods
Год выпуска: 2017
Страна: США
Жанр: Фэнтези, детектив
Продолжительность: ~01:02:00
Перевод: Профессиональный (многоголосый, закадровый) [AlexFilm]

Режиссёр: Дэвид Слэйд, Адам Кэйн, Винченцо Натали

В ролях: Рики Уиттл, Иэн МакШейн, Эмили Браунинг, Пабло Шрайбер, Брюс Лэнгли, Джонатан Такер, Джиллиан Андерсон, Клорис Личмен

Описание: Тень — человек с прошлым. Но теперь единственное, чего он хочет — это жить тихой и спокойной жизнью со своей женой в стороне от проблем. Пока он не узнает о ее гибели в результате несчастного случая. По пути на похороны домой, когда сильнейший шторм сотрясает самолет, ему представляется странный человек с соседнего кресла. Он называет себя мистер Среда. И он знает о Тени больше, чем кажется возможным. Он предупреждает Тень, что грядет ещё больший шторм. И ничто с этого момента, включая его самого, не будет таким, как прежде.



Перевод: Константин Кривоногов
Монтаж и сведение звука: Михаил Шорыгин
Роли озвучивали:
Маргарита Корш
Екатерина Муравицкая
Пётр Гланц Иващенко
Кирилл Патрино
Артём Бахтин
Евгений Прохоров
Михаил Суслов


Качество: WEBRip
Формат: AVI
Видео: 720x400 (16:9), 23.976 fps, XviD ~1420 kbps avg, 0.186 bit/pixel
Аудио Rus: 48 kHz, MPEG Layer 3, 2 ch, ~128.00 kbps avg
Аудио Eng: 48 kHz, MPEG Layer 3, 2 ch, ~128.00 kbps avg

Субтитры: отсутствуют
Формат : AVI
Формат/Информация : Audio Video Interleave
Размер файла : 760 Мбайт
Продолжительность : 1 ч. 3 м.
Общий поток : 1676 Кбит/сек
Название фильма : American Gods 1x01 @ AlexFilm
Программа кодирования : VirtualDubMod 1.5.10.2 (build 2540/release)
Библиотека кодирования : VirtualDubMod build 2540/release

Видео
Идентификатор : 0
Формат : MPEG-4 Visual
Профиль формата : Advanced Simple@L5
Параметр BVOP формата : Нет
Параметр QPel формата : Нет
Параметр GMC формата : Без точки перехода
Параметр матрицы формата : Default (MPEG)
Идентификатор кодека : XVID
Идентификатор кодека/Подсказка : XviD
Продолжительность : 1 ч. 3 м.
Битрейт : 1406 Кбит/сек
Ширина : 720 пикселей
Высота : 400 пикселей
Соотношение сторон : 16:9
Частота кадров : 23,976 (23976/1000) кадра/сек
Цветовое пространство : YUV
Субдискретизация насыщенности : 4:2:0
Битовая глубина : 8 бит
Тип развёртки : Прогрессивная
Метод сжатия : С потерями
Бит/(Пиксели*Кадры) : 0.204
Размер потока : 638 Мбайт (84%)
Библиотека кодирования : XviD 73

Аудио #1
Идентификатор : 1
Формат : MPEG Audio
Версия формата : Version 1
Профиль формата : Layer 3
Режим : Joint stereo
Расширение режима : MS Stereo
Идентификатор кодека : 55
Идентификатор кодека/Подсказка : MP3
Продолжительность : 1 ч. 3 м.
Вид битрейта : Постоянный
Битрейт : 128 Кбит/сек
Каналы : 2 канала
Частота : 48,0 КГц
Метод сжатия : С потерями
Размер потока : 58,1 Мбайт (8%)
Выравнивание : Соединение по промежуткам
Продолжительность промежутка : 42 мс. (1,00 видеокадр)
Время предзагрузки промежутка : 504 мс.
Заголовок : Russian (AlexFilm)
Библиотека кодирования : LAME3.99r
Настройки программы : -m j -V 4 -q 3 -lowpass 18 -b 128

Аудио #2
Идентификатор : 2
Формат : MPEG Audio
Версия формата : Version 1
Профиль формата : Layer 3
Режим : Joint stereo
Расширение режима : MS Stereo
Идентификатор кодека : 55
Идентификатор кодека/Подсказка : MP3
Продолжительность : 1 ч. 3 м.
Вид битрейта : Постоянный
Битрейт : 128 Кбит/сек
Каналы : 2 канала
Частота : 48,0 КГц
Метод сжатия : С потерями
Размер потока : 58,1 Мбайт (8%)
Выравнивание : Соединение по промежуткам
Продолжительность промежутка : 42 мс. (1,00 видеокадр)
Время предзагрузки промежутка : 504 мс.
Заголовок : English
Библиотека кодирования : LAME3.90.3
Внимание! Раздача ведётся путём добавления новых серий; при каждом добавлении создаётся новый торрент. Чтобы начать докачку новой серии, пользователям необходимо сделать следующее:
(1) остановить скачивание,
(2) удалить старый торрент у себя из клиента (старые серии удалять не надо),
(3) скачать новый торрент и запустить его у себя в клиенте вместо старого, при этом указать клиенту путь в старую папку куда и должно происходить скачивание новых серий.
Ваш клиент при этом должен произвести хеширование (проверку) старой папки (если не производит сам - помогите ему сделать это), и будет докачивать только те серии которых у вас ещё нет. Старые серии при этом не удаляются, а продолжают раздаваться!
Eсли вы уже удалили старые серии, то предотвратить повторную закачку старых серий можно, отжав галочку в соответствующих местах при запуске нового торрента. По возможности, желательно не удалять старые серии как можно дольше чтобы релизёр не столько продолжал раздавать старые серии, а смог сконцентрироваться на новых.
pb.wtf



Скачать Американские боги через торрент http://i89.fastpic.ru/big/2017/0501/c7/b98a997b677dc35cfe43383b046883c7.jpg Скачать фильм Американские боги через торрент бесплантно в хорошем качестве Описание: Тень — человек с прошлым. Но теперь единственное, чего он хочет — это жить тихой и спокойной жизнью со своей женой в стороне от ... 9.9 10 13
Торрент: Зарегистрирован [2017-06-20 06:39] · скачан: 260 раз
Статус: √ проверено
Размер: 5.42 GB
Как cкачать? Как скачать Американские боги через торрент | qTorrent

% Раздел Тема Автор DL S | L
Зарубежные сериалы [ 29.13 GB ] Американские боги / American Gods / Сезон: 2 / Серии: 1-8 из 8 [2019 WEBRip 1080p] DVO [Кубик в Кубе] bober100 Скачать
2 | 0
Зарубежные сериалы [ 5.29 GB ] Американские боги / American Gods / Сезон: 2 / Серии: 1-8 из 8 [2019 WEB-DLRip] MVO [Alexfilm] bober100 Скачать
1 | 0
Зарубежные сериалы [ 5.24 GB ] Американские боги / American Gods / Сезон: 2 / Серии: 1-8 из 8 [2019 WEBRip] MVO [LostFilm] bober100 Скачать
1 | 0
Зарубежные сериалы [ 28.94 GB ] Американские боги / American Gods / Сезон: 2 / Серии: 1-8 из 8 [2019 WEB-DL 1080p] MVO [AlexFilm] bober100 Скачать
1 | 0
Зарубежные сериалы [ 29.72 GB ] Американские боги / American Gods / Сезон 2 / Серии 1-8 из 8 [2019 WEB-DL 1080p] killermax2013 Скачать
1 | 0
Зарубежные сериалы [ 7.16 GB ] Американские боги / American Gods / Сезон 2 / Серии 1-8 из 8 [2019 WEB-DLRip] [MVO] killermax2013 Скачать
1 | 0
Зарубежные сериалы [ 17.33 GB ] Американские боги / American Gods / Сезон: 2 / Серии: 1-8 из 8 [2019 WEB-DL 720p] 3x[MVO] killermax2013 Скачать
1 | 0


Последний раз редактировалось: killermax2013 (2017-06-20 06:39), всего редактировалось 5 раз(а)

28-11-2019 20:33  

Отключить всю рекламу на сайте

15-05-2017 18:01 Американские боги Скачать торрент  

American.Gods.s02e01.WEBRip.Rus.Eng.AlexFilm.avi
American.Gods.s02e02.WEBRip.Rus.Eng.AlexFilm.avi

Ошибочка в названии файлов тут,.. и в релизе - Американские боги / American Gods / Сезон: 1 / Серии 1-8 из 8 pb.wtf



16-05-2017 07:46 Американские боги Скачать торрент  

+3pb.wtf



29-05-2017 07:02 Американские боги Скачать торрент  

+4pb.wtf



30-05-2017 07:53 Американские боги Скачать торрент  

+5pb.wtf



07-06-2017 06:30 Американские боги Скачать торрент  

+6pb.wtf



07-06-2017 11:58 Американские боги Скачать торрент  

от байбако было 2 дня назад уже!pb.wtf



07-06-2017 13:07 Американские боги Скачать торрент  

ROBOCOP писал(а):

от байбако было 2 дня назад уже!

при чем тут бабаки ? от картавых еще раньше было и что с того.Тут проф релиз от алексовpb.wtf



20-06-2017 06:39 Американские боги Скачать торрент  

+7-8pb.wtf



    Дорогой пользователь! Огромная просьба, поблагодарите релизера, оцените раздачу и оставьте свои комментарий, если Вы скачали Американские боги через торрент бесплатно! Внесите свою лепту в развитие PiratBit!
    Комментировать посты могут только пользователи прошедшие не сложную регистрацию
    Показать сообщения:    

    Американские боги через торрент
    Скачать бесплатно Американские боги
    Американские боги скачать торрент
    Американские боги смотреть онлайн
    Cкачать фильм Американские боги бесплатно
    Американские боги скачать торрент в хорошем качестве
    Американские боги смотреть онлайн бесплатно в хорошем качестве


    Вы не можете начинать темы
    Вы не можете отвечать на сообщения
    Вы не можете редактировать свои сообщения
    Вы не можете удалять свои сообщения
    Вы не можете голосовать в опросах
    Вы не можете прикреплять файлы к сообщениям
    Вы можете скачивать файлы