Ссылка на приватное зеркало нашего сайта всего за 1$. Внимание количество ограничено!!!

2 сезон

iTunes

1 сезон

1

2 сезон

2 сезон

iTunes

1 сезон

RePack

30

Ultimate

ВАЖНО

ИГРА 18+

pack

RePack

MK11
pack

Забери бонус

RePack

jed

!!Акция!!

Alien_Rage

RePack

fifa19

RePack

Assassins Creed: Odyssey

RePack

NEED FOR SPEED™ PAYBACK

4 сезон

9 сезон

Бесстыжие 9 сезон

Все сериалы

все сериалы на PB.wtf

RePack

FAR CRY 5
  

Американские боги / American Gods / Сезон: 1 / Серии 1-8 из 8 (Дэвид Слэйд) [2017, фэнтези, детектив, драма, WEBRip 720p] [MVO] (AlexFilm) pb.wtf

Американские боги через торрент pb.wtf

Размер: 15.13 GB | Добавлен: 3 года 5 мес. назад | Торрент скачан:147 раз
Скачать  

02-05-2017 09:57 Американские боги Скачать торрент  

Американские богиAmerican Gods
Год выпуска: 2017
Страна: США
Жанр: Фэнтези, детектив
Продолжительность: ~01:02:00
Перевод: Профессиональный (многоголосый, закадровый) [AlexFilm]

Режиссёр: Дэвид Слэйд, Адам Кэйн, Винченцо Натали

В ролях: Рики Уиттл, Иэн МакШейн, Эмили Браунинг, Пабло Шрайбер, Брюс Лэнгли, Джонатан Такер, Джиллиан Андерсон, Клорис Личмен

Описание: Тень — человек с прошлым. Но теперь единственное, чего он хочет — это жить тихой и спокойной жизнью со своей женой в стороне от проблем. Пока он не узнает о ее гибели в результате несчастного случая. По пути на похороны домой, когда сильнейший шторм сотрясает самолет, ему представляется странный человек с соседнего кресла. Он называет себя мистер Среда. И он знает о Тени больше, чем кажется возможным. Он предупреждает Тень, что грядет ещё больший шторм. И ничто с этого момента, включая его самого, не будет таким, как прежде.



Перевод: Константин Кривоногов
Монтаж и сведение звука: Михаил Шорыгин
Роли озвучивали:
Маргарита Корш
Екатерина Муравицкая
Пётр Гланц Иващенко
Кирилл Патрино
Артём Бахтин
Евгений Прохоров
Михаил Суслов


Качество: WEBRip 720p
Формат: MKV
Видео: 1280x720, 23.976 fps, MPEG-4 AVC ~3942 kbps avg, 0.179 bit/pixel
Аудио Rus: 48 kHz, AC3 Dolby Digital, 3/2 (L,C,R,l,r) + LFE ch, ~384.00 kbps
Аудио Eng: 48 kHz, AC3 Dolby Digital, 3/2 (L,C,R,l,r) + LFE ch, ~384.00 kbps

Субтитры: отсутствуют
Формат : Matroska
Версия формата : Version 4 / Version 2
Размер файла : 2,18 Гбайт
Продолжительность : 1 ч. 2 м.
Общий поток : 4961 Кбит/сек
Название фильма : American Gods 1x01 @ AlexFilm
Дата кодирования : UTC 2017-05-01 22:33:35
Программа кодирования : mkvmerge v7.1.0 ('Good Love') 64bit built on Jul 27 2014 13:06:55
Библиотека кодирования : libebml v1.3.0 + libmatroska v1.4.1

Видео
Идентификатор : 1
Формат : AVC
Формат/Информация : Advanced Video Codec
Профиль формата : High@L4.1
Параметр CABAC формата : Да
Параметр ReFrames формата : 9 кадров
Идентификатор кодека : V_MPEG4/ISO/AVC
Продолжительность : 1 ч. 2 м.
Битрейт : 4095 Кбит/сек
Ширина : 1280 пикселей
Высота : 720 пикселей
Соотношение сторон : 16:9
Режим частоты кадров : Постоянный
Частота кадров : 23,976 (24000/1001) кадра/сек
Цветовое пространство : YUV
Субдискретизация насыщенности : 4:2:0
Битовая глубина : 8 бит
Тип развёртки : Прогрессивная
Бит/(Пиксели*Кадры) : 0.185
Размер потока : 1,80 Гбайт (83%)
Библиотека кодирования : x264 core 148 r2762+12 (master: 5d7902f / tmod: fdded9f) [X86_64]
Настройки программы : cabac=1 / ref=9 / deblock=1:-3:-3 / analyse=0x3:0x113 / me=umh / subme=10 / psy=1 / fade_compensate=0.00 / psy_rd=1.05:0.15 / mixed_ref=1 / me_range=48 / chroma_me=1 / trellis=2 / 8x8dct=1 / cqm=0 / deadzone=21,11 / fast_pskip=0 / chroma_qp_offset=-3 / threads=22 / lookahead_threads=3 / sliced_threads=0 / nr=0 / decimate=0 / interlaced=0 / bluray_compat=0 / constrained_intra=0 / fgo=0 / bframes=9 / b_pyramid=2 / b_adapt=2 / b_bias=0 / direct=3 / weightb=1 / open_gop=0 / weightp=2 / keyint=250 / keyint_min=23 / scenecut=40 / intra_refresh=0 / rc=crf / mbtree=0 / crf=18.0000 / qcomp=0.65 / qpmin=0:0:0 / qpmax=69:69:69 / qpstep=4 / ip_ratio=1.40 / pb_ratio=1.30 / aq=3:0.75 / aq-sensitivity=10.00 / aq-factor=1.00:1.00:1.00 / aq2=0 / aq3=0
Язык : English
Default : Да
Forced : Нет

Аудио #1
Идентификатор : 2
Формат : AC-3
Формат/Информация : Audio Coding 3
Расширение режима : CM (complete main)
Параметр Endianness формата : Big
Идентификатор кодека : A_AC3
Продолжительность : 1 ч. 2 м.
Вид битрейта : Постоянный
Битрейт : 384 Кбит/сек
Каналы : 6 каналов
Расположение каналов : Front: L C R, Side: L R, LFE
Частота : 48,0 КГц
Частота кадров : 31,250 кадров/сек (1536 spf)
Метод сжатия : С потерями
Размер потока : 173 Мбайт (8%)
Заголовок : DD5.1 AlexFilm
Язык : Russian
Default : Да
Forced : Нет

Аудио #2
Идентификатор : 3
Формат : AC-3
Формат/Информация : Audio Coding 3
Расширение режима : CM (complete main)
Параметр Endianness формата : Big
Идентификатор кодека : A_AC3
Продолжительность : 1 ч. 2 м.
Вид битрейта : Постоянный
Битрейт : 384 Кбит/сек
Каналы : 6 каналов
Расположение каналов : Front: L C R, Side: L R, LFE
Частота : 48,0 КГц
Частота кадров : 31,250 кадров/сек (1536 spf)
Метод сжатия : С потерями
Размер потока : 173 Мбайт (8%)
Заголовок : DD5.1 Original
Язык : English
Default : Нет
Forced : Нет
Внимание! Раздача ведётся путём добавления новых серий; при каждом добавлении создаётся новый торрент. Чтобы начать докачку новой серии, пользователям необходимо сделать следующее:
(1) остановить скачивание,
(2) удалить старый торрент у себя из клиента (старые серии удалять не надо),
(3) скачать новый торрент и запустить его у себя в клиенте вместо старого, при этом указать клиенту путь в старую папку куда и должно происходить скачивание новых серий.
Ваш клиент при этом должен произвести хеширование (проверку) старой папки (если не производит сам - помогите ему сделать это), и будет докачивать только те серии которых у вас ещё нет. Старые серии при этом не удаляются, а продолжают раздаваться!
Eсли вы уже удалили старые серии, то предотвратить повторную закачку старых серий можно, отжав галочку в соответствующих местах при запуске нового торрента. По возможности, желательно не удалять старые серии как можно дольше чтобы релизёр не столько продолжал раздавать старые серии, а смог сконцентрироваться на новых.
pb.wtf



Скачать Американские боги через торрент http://i89.fastpic.ru/big/2017/0501/c7/b98a997b677dc35cfe43383b046883c7.jpg Скачать фильм Американские боги через торрент бесплантно в хорошем качестве Описание: Тень — человек с прошлым. Но теперь единственное, чего он хочет — это жить тихой и спокойной жизнью со своей женой в стороне от ... 9.2 10 16
Торрент: Зарегистрирован [2017-06-20 06:36] · скачан: 147 раз
Статус: √ проверено
Размер: 15.13 GB
Как cкачать? Как скачать Американские боги через торрент | qTorrent

% Раздел Тема Автор DL S | L
Зарубежные сериалы [ 29.13 GB ] Американские боги / American Gods / Сезон: 2 / Серии: 1-8 из 8 [2019 WEBRip 1080p] DVO [Кубик в Кубе] bober100 Скачать
1 | 0
Зарубежные сериалы [ 5.29 GB ] Американские боги / American Gods / Сезон: 2 / Серии: 1-8 из 8 [2019 WEB-DLRip] MVO [Alexfilm] bober100 Скачать
1 | 0
Зарубежные сериалы [ 5.24 GB ] Американские боги / American Gods / Сезон: 2 / Серии: 1-8 из 8 [2019 WEBRip] MVO [LostFilm] bober100 Скачать
1 | 0
Зарубежные сериалы [ 28.94 GB ] Американские боги / American Gods / Сезон: 2 / Серии: 1-8 из 8 [2019 WEB-DL 1080p] MVO [AlexFilm] bober100 Скачать
2 | 0
Зарубежные сериалы [ 29.72 GB ] Американские боги / American Gods / Сезон 2 / Серии 1-8 из 8 [2019 WEB-DL 1080p] killermax2013 Скачать
1 | 0
Зарубежные сериалы [ 7.16 GB ] Американские боги / American Gods / Сезон 2 / Серии 1-8 из 8 [2019 WEB-DLRip] [MVO] killermax2013 Скачать
1 | 0
Зарубежные сериалы [ 17.33 GB ] Американские боги / American Gods / Сезон: 2 / Серии: 1-8 из 8 [2019 WEB-DL 720p] 3x[MVO] killermax2013 Скачать
1 | 0


Последний раз редактировалось: killermax2013 (2017-06-20 06:36), всего редактировалось 6 раз(а)

28-11-2019 20:33  

Отключить всю рекламу на сайте

03-05-2017 14:17 Американские боги Скачать торрент  

Зацепил!pb.wtf



05-05-2017 04:35 Американские боги Скачать торрент  

Хм... Вроде много мистики на первый взгляд, но чем то затягивает сериал, пока что не понял чем . Будем смотреть дальше.pb.wtf



13-05-2017 18:12 Американские боги Скачать торрент  

+2pb.wtf



16-05-2017 07:54 Американские боги Скачать торрент  

+3pb.wtf



29-05-2017 07:00 Американские боги Скачать торрент  

+4pb.wtf



30-05-2017 07:50 Американские боги Скачать торрент  

+5pb.wtf



07-06-2017 06:27 Американские боги Скачать торрент  

+6pb.wtf



20-06-2017 06:36 Американские боги Скачать торрент  

+7-8.Финал сезонаpb.wtf



    Дорогой пользователь! Огромная просьба, поблагодарите релизера, оцените раздачу и оставьте свои комментарий, если Вы скачали Американские боги через торрент бесплатно! Внесите свою лепту в развитие PiratBit!
    Комментировать посты могут только пользователи прошедшие не сложную регистрацию
    Показать сообщения:    

    Американские боги через торрент
    Скачать бесплатно Американские боги
    Американские боги скачать торрент
    Американские боги смотреть онлайн
    Cкачать фильм Американские боги бесплатно
    Американские боги скачать торрент в хорошем качестве
    Американские боги смотреть онлайн бесплатно в хорошем качестве


    Вы не можете начинать темы
    Вы не можете отвечать на сообщения
    Вы не можете редактировать свои сообщения
    Вы не можете удалять свои сообщения
    Вы не можете голосовать в опросах
    Вы не можете прикреплять файлы к сообщениям
    Вы можете скачивать файлы