Ссылка на приватное зеркало нашего сайта всего за 1$. Внимание количество ограничено!!!

2 сезон

iTunes

1 сезон

1

2 сезон

2 сезон

iTunes

1 сезон

RePack

30

Ultimate

ВАЖНО

ИГРА 18+

pack

RePack

MK11
pack

Забери бонус

RePack

jed

!!Акция!!

Alien_Rage

RePack

fifa19

RePack

Assassins Creed: Odyssey

RePack

NEED FOR SPEED™ PAYBACK

4 сезон

9 сезон

Бесстыжие 9 сезон

Все сериалы

все сериалы на PB.wtf

RePack

FAR CRY 5
  

Лучше звоните Солу / Better Call Saul / Сезон: 3 / Серии 1-10 из 10 (Винс Гиллиган / Vince Gilligan, Томас Шнауз / Thomas Schnauz, Питер Гулд / Peter Gould) [2017, США, драма, криминал, WEB-DL 720p] MVO [Кравец] pb.wtf

Лучше звоните Солу через торрент pb.wtf

Размер: 16.29 GB | Добавлен: 3 года 5 мес. назад | Торрент скачан:137 раз
Скачать  

03-05-2017 02:35 Лучше звоните Солу Скачать торрент  


Лучше звоните Солу / Better Call Saul

«Принять вызов»


  • Год выпуска: 2017
  • Страна: США
  • Жанр: драма, криминал
  • Продолжительность: 00:51:56 (Серия)
  • Перевод: Профессиональный многоголосый [Кравец по заказу Amedia]
  • Режиссер: Винс Гиллиган / Vince Gilligan, Томас Шнауз / Thomas Schnauz, Питер Гулд / Peter Gould
  • В ролях:

    Боб Оденкёрк (Jimmy McGill), Джонатан Бэнкс (Mike Ehrmantraut), Ри Сихорн (Kim Wexler), Майкл МакКин (Chuck McGill), Патрик Фабиан (Howard Hamlin), Майкл Мэндо (Nacho Varga), Керри Кондон (Stacey Ehrmantraut), Винсент Фуэнтес (Arturo), Omar Maskati (Omar), Эйлин Фогарти (Mrs. Nguyen), Брэндон К. Хэмптон (Ernesto), Джесси Эннис (Erin)


  • История об испытаниях и невзгодах, которые приходится преодолеть Солу Гудману, адвокату по уголовным делам, в тот период, когда он пытается открыть свою собственную адвокатскую контору в Альбукерке, штат Нью-Мексико.
  • Рейтинг:



  • Качество: WEB-DL 720p
  • Формат: :MKV
  • Видео кодек: AVC
  • Аудио кодек: AC3
  • Видео: 3972 Кбит/сек, 1280*718 (16:9), в 23,976 кадра/сек, AVC
  • Аудио №1: Русский 192 Кбит/сек, 48,0 КГц, 16 бит, 2 канала, AC-3
  • Аудио №2: Английский 384 Кбит/сек, 48,0 КГц, 16 бит, 6 каналов, AC-3

    Внимание! Раздача ведётся путём добавления новых серий; при каждом добавлении создаётся новый торрент. Чтобы начать докачку новой серии, пользователям необходимо сделать следующее:
    (1) остановить скачивание,
    (2) удалить старый торрент у себя из клиента (старые серии удалять не надо),
    (3) скачать новый торрент и запустить его у себя в клиенте вместо старого, при этом указать клиенту путь в старую папку куда и должно происходить скачивание новых серий.
    Ваш клиент при этом должен произвести хеширование (проверку) старой папки (если не производит сам - помогите ему сделать это), и будет докачивать только те серии которых у вас ещё нет. Старые серии при этом не удаляются, а продолжают раздаваться!
    Eсли вы уже удалили старые серии, то предотвратить повторную закачку старых серий можно, отжав галочку в соответсвующих местах при запуске нового торрента. По возможности, желательно не удалять старые серии как можно дольше чтобы релизёр не столько продолжал раздавать старые серии, а смог сконцентрироваться на новых.

    Общее
    Уникальный идентификатор : 232401066730969340361001533350387086265 (0xAED6D13E02F447A689A2556826A773B9)
    Полное имя : D:\Фильмы\Лучше звоните Солу (Season 03) Кравец\Better Call Saul.720p.3E04.Кравец.mkv
    Формат : Matroska
    Версия формата : Version 2
    Размер файла : 1,54 Гбайт
    Продолжительность : 47 м. 22 с.
    Общий поток : 4640 Кбит/сек
    Дата кодирования : UTC 2017-05-02 13:12:14
    Программа кодирования : mkvmerge v7.8.0 ('River Man') 32bit built on Apr 3 2015 12:11:22
    Библиотека кодирования : libebml v1.3.1 + libmatroska v1.4.2

    Видео
    Идентификатор : 1
    Формат : AVC
    Формат/Информация : Advanced Video Codec
    Профиль формата : High@L3.1
    Параметр CABAC формата : Нет
    Параметр ReFrames формата : 2 кадра
    Идентификатор кодека : V_MPEG4/ISO/AVC
    Продолжительность : 47 м. 22 с.
    Битрейт : 3972 Кбит/сек
    Ширина : 1280 пикселей
    Высота : 718 пикселей
    Соотношение сторон : 16:9
    Режим частоты кадров : Постоянный
    Частота кадров : 23,976 кадра/сек
    Цветовое пространство : YUV
    Субдискретизация насыщенности : 4:2:0
    Битовая глубина : 8 бит
    Тип развёртки : Прогрессивная
    Бит/(Пиксели*Кадры) : 0.180
    Размер потока : 1,31 Гбайт (86%)
    Язык : English
    Default : Да
    Forced : Нет
    Цветовой диапазон : Limited
    Основные цвета : BT.709
    Характеристики трансфера : BT.709
    Коэффициенты матрицы : BT.709

    Аудио #1
    Идентификатор : 2
    Формат : AC-3
    Формат/Информация : Audio Coding 3
    Расширение режима : CM (complete main)
    Параметр Endianness формата : Big
    Идентификатор кодека : A_AC3
    Продолжительность : 47 м. 22 с.
    Вид битрейта : Постоянный
    Битрейт : 192 Кбит/сек
    Каналы : 2 канала
    Расположение каналов : Front: L R
    Частота : 48,0 КГц
    Частота кадров : 31,250 кадров/сек (1536 spf)
    Битовая глубина : 16 бит
    Метод сжатия : С потерями
    Размер потока : 65,0 Мбайт (4%)
    Язык : Russian
    Default : Да
    Forced : Нет

    Аудио #2
    Идентификатор : 3
    Формат : AC-3
    Формат/Информация : Audio Coding 3
    Расширение режима : CM (complete main)
    Параметр Endianness формата : Big
    Идентификатор кодека : A_AC3
    Продолжительность : 47 м. 22 с.
    Вид битрейта : Постоянный
    Битрейт : 384 Кбит/сек
    Каналы : 6 каналов
    Расположение каналов : Front: L C R, Side: L R, LFE
    Частота : 48,0 КГц
    Частота кадров : 31,250 кадров/сек (1536 spf)
    Битовая глубина : 16 бит
    Метод сжатия : С потерями
    Размер потока : 130 Мбайт (8%)
    Язык : English
    Default : Нет
    Forced : Нет



    Скриншоты:
    скриншот   скриншот   скриншот   скриншот   скриншот   скриншот   скриншот  
    скриншот  

    Раздача ведётся путём добавления новых серий. Добавлена 10 серия (21.06.2017).Просьба перекачать торрент файл.

    pb.wtf



  • Скачать Лучше звоните Солу через торрент http://pic1.kartinco.top/images/11/k7o5c.jpg Скачать фильм Лучше звоните Солу через торрент бесплантно в хорошем качестве qw.png История об испытаниях и невзгодах, которые приходится преодолеть Солу Гудману, адвокату по уголовным делам, в тот период, когда он ... 10 10 7
    Info! Золотая раздача, скачанное не засчитывается.
    Торрент: Зарегистрирован [2017-06-21 01:07] · скачан: 137 раз
    Статус: √ проверено
    Размер: 16.29 GB
    Как cкачать? Как скачать Лучше звоните Солу через торрент | qTorrent

    % Раздел Тема Автор DL S | L
    Зарубежные сериалы [ 31.59 GB ] Лучше звоните Солу / Better Call Saul / Сезон: 3 / Серии: 1-10 из 10 [2017 WEBRip 1080p] DVO [Кубик в Кубе] bober100 Скачать
    1 | 0
    # Зарубежные сериалы [ 12.43 GB ] Лучше звоните Солу / Better call Saul / Сезон 1-3 / Серии 1-30 из 30 [2015-2017 BDRip-HEVC 1080p ] DVO aksaleale Скачать
    2 | 0
    Зарубежные сериалы [ 10.44 GB ] Лучше звоните Солу / Better Call Saul / Сезон: 3 / Серии 1-10 из 10 [2017 WEBRip] [DVO] killermax2013 Скачать
    1 | 0
    Зарубежные сериалы [ 6.25 GB ] Лучше звоните Солу / Better Call Saul / Сезон: 3 / Серии 1-10 из 10 [2017 WEB-DLRip] [MVO] killermax2013 Скачать
    1 | 0
    Зарубежные сериалы [ 6.18 GB ] Лучше звоните Солу / Better Call Saul / Сезон: 3 / Серии 1-10 из 10 [2017 WEB-DLRip] [MVO] killermax2013 Скачать
    1 | 0
    Зарубежные сериалы [ 6.84 GB ] Лучше звоните Солу / Better Call Saul / Сезон: 3 / Серии 1-10 из 10 [2017 WEB-DLRip] MVO [Кравец] GEKADOL Скачать
    1 | 1
    Зарубежные сериалы [ 7.56 GB ] Лучше звоните Солу / Better Call Saul / Сезон: 3 / Серии: 1-10 из 10 [2017 WEB-DLRip] MVO [IdeaFilm] bober100 Скачать
    1 | 0

    28-11-2019 20:33  

    Отключить всю рекламу на сайте

      Дорогой пользователь! Огромная просьба, поблагодарите релизера, оцените раздачу и оставьте свои комментарий, если Вы скачали Лучше звоните Солу через торрент бесплатно! Внесите свою лепту в развитие PiratBit!
      Комментировать посты могут только пользователи прошедшие не сложную регистрацию
      Показать сообщения:    

      Лучше звоните Солу через торрент
      Скачать бесплатно Лучше звоните Солу
      Лучше звоните Солу скачать торрент
      Лучше звоните Солу смотреть онлайн
      Cкачать фильм Лучше звоните Солу бесплатно
      Лучше звоните Солу скачать торрент в хорошем качестве
      Лучше звоните Солу смотреть онлайн бесплатно в хорошем качестве


      Вы не можете начинать темы
      Вы не можете отвечать на сообщения
      Вы не можете редактировать свои сообщения
      Вы не можете удалять свои сообщения
      Вы не можете голосовать в опросах
      Вы не можете прикреплять файлы к сообщениям
      Вы можете скачивать файлы