Death Stranding+DLC+АВТОАКТИВАЦИЯ

iTunes

iTunes

iTunes

1

iTunes

iTunes

iTunes

iTunes

iTunes

30
pack

$ от Little Big

ВАЖНО

!!Акция!!

Alien_RageХит недели

RePack

Resident Evil 21

ИГРА 18+

pack

RePack

jed

!!Акция!!

Alien_Rage

RePack

fifa19

RePack

Assassins Creed: Odyssey

RePack

NEED FOR SPEED™ PAYBACK

4 сезон

9 сезон

Бесстыжие 9 сезон

Все сериалы

все сериалы на PB.wtf

RePack

FAR CRY 5
  

Три икса: Мировое господство / xXx: Return of Xander Cage (Ди Джей Карузо) [2017, боевик, триллер, приключения, WEB-DL 1080p] Дубляж - [Лицензия / iTunes] pb.wtf

Три икса: Мировое господство через торрент pb.wtf

Размер: 3.99 GB | Добавлен: 3 года 2 мес. назад | Торрент скачан:1039 раз
Скачать  

03-05-2017 19:12 Три икса: Мировое господство Скачать торрент  

Три икса: Мировое господство / xXx: Return of Xander Cage

Год выпуска: 2017
Страна: США
Жанр: боевик, триллер, приключения

Продолжительность: 01:47:08
Перевод: Дубляж - [Лицензия / iTunes]
Субтитры: русские (Forced), русские (Full), английские (Full), английские (SDH Colored)
Режиссер: Ди Джей Карузо
В ролях:

Вин Дизель (Xander Cage), Донни Йен (Xiang), Дипика Падукон (Serena Unger), Крис У (Nicks), Руби Роуз (Adele Wolff), Тони Джа (Talon), Нина Добрев (Becky Clearidge), Рори МакКанн (Tennyson Torch), Тони Коллетт (Jane Marke), Сэмюэл Л. Джексон (Augustus Gibbons), Айс Кьюб (Darius Stone), Гермиона Корфилд (Ainsley)
Описание:
Ксандер Кейдж спустя годы возвращается из добровольного изгнания и попадает в безумный водоворот событий. Он собирает команду безбашенных экстремалов, вместе с которыми ему предстоит найти мощнейшее секретное оружие - «Ящик Пандоры». Действовать нужно быстро: за разработкой охотятся опасные головорезы. Ставки в смертельной игре повышаются, когда выясняется, что мировые правительства вовлечены в кровавый заговор, а на кону - судьба мира.
Рейтинг:

MPAA: PG-13 - Детям до 13 лет просмотр не желателен
Качество: WEB-DL 1080p
Формат: MKV
Видео: AVC, 1916x796 (2.40:1), 4456 kbps, 24 fps, 0,122 bpp
Аудио №1: русский / AC3 / 5.1 / 48 kHz / 384 kbps / |Дубляж, iTunes|
Аудио №2: английский / AC3 / 5.1 / 48 kHz / 384 kbps /
Навигация по главам: есть
Релиз от:
General
Unique ID : 191563889147211443823878770870786286734 (0x901DDCF00156A703B07EB7A60489648E)
Complete name : E:\xXx.Return.of.Xander.Cage.2017.WEB-DL.1080p.ExKinoRay.mkv
Format : Matroska
Format version : Version 4 / Version 2
File size : 3.99 GiB
Duration : 1 h 47 min
Overall bit rate : 5 331 kb/s
Encoded date : UTC 2017-05-03 18:59:41
Writing application : mkvmerge v11.0.0 ('Alive') 64bit
Writing library : libebml v1.3.4 + libmatroska v1.4.5

Video
ID : 1
Format : AVC
Format/Info : Advanced Video Codec
Format profile : High@L4
Format settings, CABAC : Yes
Format settings, ReFrames : 5 frames
Codec ID : V_MPEG4/ISO/AVC
Duration : 1 h 47 min
Bit rate : 4 457 kb/s
Width : 1 916 pixels
Height : 796 pixels
Display aspect ratio : 2.40:1
Frame rate mode : Constant
Frame rate : 24.000 FPS
Color space : YUV
Chroma subsampling : 4:2:0
Bit depth : 8 bits
Scan type : Progressive
Bits/(Pixel*Frame) : 0.122
Stream size : 3.34 GiB (84%)
Language : English
Default : Yes
Forced : No
Color range : Limited
Color primaries : BT.709
Transfer characteristics : BT.709
Matrix coefficients : BT.709

Audio #1
ID : 2
Format : AC-3
Format/Info : Audio Coding 3
Mode extension : CM (complete main)
Format settings, Endianness : Big
Codec ID : A_AC3
Duration : 1 h 47 min
Bit rate mode : Constant
Bit rate : 384 kb/s
Channel(s) : 6 channels
Channel positions : Front: L C R, Side: L R, LFE
Sampling rate : 48.0 kHz
Frame rate : 31.250 FPS (1536 spf)
Compression mode : Lossy
Stream size : 294 MiB (7%)
Title : iTunes
Language : Russian
Default : Yes
Forced : No

Audio #2
ID : 3
Format : AC-3
Format/Info : Audio Coding 3
Mode extension : CM (complete main)
Format settings, Endianness : Big
Codec ID : A_AC3
Duration : 1 h 47 min
Bit rate mode : Constant
Bit rate : 384 kb/s
Channel(s) : 6 channels
Channel positions : Front: L C R, Side: L R, LFE
Sampling rate : 48.0 kHz
Frame rate : 31.250 FPS (1536 spf)
Compression mode : Lossy
Stream size : 294 MiB (7%)
Title : Original
Language : English
Default : No
Forced : No

Text #1
ID : 4
Format : UTF-8
Codec ID : S_TEXT/UTF8
Codec ID/Info : UTF-8 Plain Text
Title : Forced
Language : Russian
Default : Yes
Forced : No

Text #2
ID : 5
Format : UTF-8
Codec ID : S_TEXT/UTF8
Codec ID/Info : UTF-8 Plain Text
Title : Full
Language : Russian
Default : No
Forced : No

Text #3
ID : 6
Format : UTF-8
Codec ID : S_TEXT/UTF8
Codec ID/Info : UTF-8 Plain Text
Title : Full
Language : English
Default : No
Forced : No

Text #4
ID : 7
Format : UTF-8
Codec ID : S_TEXT/UTF8
Codec ID/Info : UTF-8 Plain Text
Title : SDH (Colored)
Language : English
Default : No
Forced : No

Menu
00:00:00.000 : en:Chapter 1
00:07:08.000 : en:Chapter 2
00:11:59.000 : en:Chapter 3
00:22:37.000 : en:Chapter 4
00:27:55.000 : en:Chapter 5
00:38:26.000 : en:Chapter 6
00:46:58.000 : en:Chapter 7
00:52:44.000 : en:Chapter 8
01:02:09.000 : en:Chapter 9
01:11:49.000 : en:Chapter 10
01:18:34.000 : en:Chapter 11
01:28:41.000 : en:Chapter 12
01:37:56.000 : en:Chapter 13
pb.wtf



Скачать Три икса: Мировое господство через торрент http://i5.imageban.ru/out/2017/05/03/be6d5ed2638d5b10a9e7193ba13166b2.jpg Скачать фильм Три икса: Мировое господство через торрент бесплантно в хорошем качестве Описание: Ксандер Кейдж спустя годы возвращается из добровольного изгнания и попадает в безумный водоворот событий. Он собирает команду ... 9.3 10 27
Info! Золотая раздача, скачанное не засчитывается.
Торрент: Зарегистрирован [2017-05-03 19:12] · скачан: 1 039 раз
Статус: √ проверено
Размер: 3.99 GB
Как cкачать? Как скачать Три икса: Мировое господство через торрент | qTorrent

% Раздел Тема Автор DL S | L
3D Видео (48-60 fps) [ 4.58 GB ] Три икса: Мировое господство в 3D / xXx: Return of Xander Cage in 3D [2017 BDRip 720p / 60 FPS ] Анаглиф от R.G. HD-Films slaventi-69 Скачать
1 | 0
Ultra HD (UHD: 2K, 4K, 8K) — видео сверхвысокой чёткости [ 60.25 GB ] Три икса: Мировое господство / xXx: Return of Xander Cage [2016 UHD Blu-ray 2160p] DUB + AVO sheker187 Скачать
1 | 0
Ultra HD (UHD: 2K, 4K, 8K) — видео сверхвысокой чёткости [ 55.73 GB ] Три икса: Мировое господство / xXx: Return of Xander Cage [2017 UHD BDRemux 2160p] AVO [Живов] +DUB [] bober100 Скачать
1 | 0
Фильмы [HD 720p, 1080p] (Хороший звук DUB, MVO) [ 10.46 GB ] Три икса: Мировое господство / xXx: Return of Xander Cage [2016 BDRip 1080p] - sheker187 Скачать
1 | 0
Фильмы без перевода [ 22.34 GB ] Три икса: Мировое господство / xXx: Return of Xander Cage [2017 BD Remux] [Оригинал-ENG] smaster Скачать
1 | 0
Фильмы 2017 [DVDrip, WEB-DLRip, HDrip] (DUB, MVO) [ 1.46 GB ] Три икса: Мировое господство / xXx: Return of Xander Cage [2017 BDRip] - [] Twi7ter Скачать
1 | 0
Фильмы 2017 [DVDrip, WEB-DLRip, HDrip] (DUB, MVO) [ 2.18 GB ] Три икса: Мировое господство / xXx: Return of Xander Cage [2017 BDRip] - [] Twi7ter Скачать
1 | 0


Последний раз редактировалось: -Lexx- (2017-05-04 06:34), всего редактировалось 1 раз

28-11-2019 20:33  

Отключить всю рекламу на сайте

03-05-2017 19:43 Три икса: Мировое господство Скачать торрент  

Какой уже старенький Дизелёкpb.wtf



04-05-2017 05:38 Три икса: Мировое господство Скачать торрент  

Пробег то большой уже))pb.wtf



04-05-2017 07:23 Три икса: Мировое господство Скачать торрент  

Форсаж его потрепал bike pb.wtf



23-05-2017 17:37 Три икса: Мировое господство Скачать торрент  

смотреть можно, если очень скучноpb.wtf



    Дорогой пользователь! Огромная просьба, поблагодарите релизера, оцените раздачу и оставьте свои комментарий, если Вы скачали Три икса: Мировое господство через торрент бесплатно! Внесите свою лепту в развитие PiratBit!
    Комментировать посты могут только пользователи прошедшие не сложную регистрацию
    Показать сообщения:    

    Три икса: Мировое господство через торрент
    Скачать бесплатно Три икса: Мировое господство
    Три икса: Мировое господство скачать торрент
    Три икса: Мировое господство смотреть онлайн
    Cкачать фильм Три икса: Мировое господство бесплатно
    Три икса: Мировое господство скачать торрент в хорошем качестве
    Три икса: Мировое господство смотреть онлайн бесплатно в хорошем качестве


    Вы не можете начинать темы
    Вы не можете отвечать на сообщения
    Вы не можете редактировать свои сообщения
    Вы не можете удалять свои сообщения
    Вы не можете голосовать в опросах
    Вы не можете прикреплять файлы к сообщениям
    Вы можете скачивать файлы