Ссылка на приватное зеркало всего за 1$. Внимание количество ограничено!!!

iTunes

iTunes

iTunes

1

iTunes

iTunes

iTunes

iTunes

iTunes

30
pack

$ от Little Big

ВАЖНО

!!Акция!!

Alien_RageХит недели

RePack

Resident Evil 21

ИГРА 18+

pack

RePack

jed

!!Акция!!

Alien_Rage

RePack

fifa19

RePack

Assassins Creed: Odyssey

RePack

NEED FOR SPEED™ PAYBACK

4 сезон

9 сезон

Бесстыжие 9 сезон

Все сериалы

все сериалы на PB.wtf

RePack

FAR CRY 5
  

Три икса: Мировое господство / xXx: Return of Xander Cage (Ди Джей Карузо) [2017, боевик, триллер, приключения, WEB-DL 720p] Дубляж - [Лицензия / iTunes] pb.wtf

Три икса: Мировое господство через торрент pb.wtf

Размер: 3.58 GB | Добавлен: 3 года 2 мес. назад | Торрент скачан:335 раз
Скачать  

03-05-2017 19:22 Три икса: Мировое господство Скачать торрент  

Три икса: Мировое господство / xXx: Return of Xander Cage

Год выпуска: 2017
Страна: США
Жанр: боевик, триллер, приключения

Продолжительность: 01:47:08
Перевод: Дубляж - [Лицензия / iTunes]
Субтитры: русские (Forced), русские (Full), английские (Full), английские (SDH Colored)
Режиссер: Ди Джей Карузо
В ролях:

Вин Дизель (Xander Cage), Донни Йен (Xiang), Дипика Падукон (Serena Unger), Крис У (Nicks), Руби Роуз (Adele Wolff), Тони Джа (Talon), Нина Добрев (Becky Clearidge), Рори МакКанн (Tennyson Torch), Тони Коллетт (Jane Marke), Сэмюэл Л. Джексон (Augustus Gibbons), Айс Кьюб (Darius Stone), Гермиона Корфилд (Ainsley)
Описание:
Ксандер Кейдж спустя годы возвращается из добровольного изгнания и попадает в безумный водоворот событий. Он собирает команду безбашенных экстремалов, вместе с которыми ему предстоит найти мощнейшее секретное оружие - «Ящик Пандоры». Действовать нужно быстро: за разработкой охотятся опасные головорезы. Ставки в смертельной игре повышаются, когда выясняется, что мировые правительства вовлечены в кровавый заговор, а на кону - судьба мира.
Рейтинг:

MPAA: PG-13 - Детям до 13 лет просмотр не желателен
Качество: WEB-DL 720p
Формат: MKV
Видео: AVC, 1280x532 (2.40:1), 3919 kbps, 24 fps, 0,240 bpp
Аудио №1: русский / AC3 / 5.1 / 48 kHz / 384 kbps / |Дубляж, iTunes|
Аудио №2: английский / AC3 / 5.1 / 48 kHz / 384 kbps /
Навигация по главам: есть
Релиз от:
Общее
Уникальный идентификатор : 206644815665149835491049918172255971031 (0x9B76580584762142BF0064967AD366D7)
Полное имя : E:\xXx.Return.of.Xander.Cage.2017.WEB-DL.720p.ExKinoRay.mkv
Формат : Matroska
Версия формата : Version 4 / Version 2
Размер файла : 3,58 Гбайт
Продолжительность : 1 ч. 47 м.
Общий поток : 4782 Кбит/сек
Дата кодирования : UTC 2017-05-03 19:01:54
Программа кодирования : mkvmerge v11.0.0 ('Alive') 64bit
Библиотека кодирования : libebml v1.3.4 + libmatroska v1.4.5

Видео
Идентификатор : 1
Формат : AVC
Формат/Информация : Advanced Video Codec
Профиль формата : Main@L3.1
Параметр CABAC формата : Нет
Параметр ReFrames формата : 2 кадра
Идентификатор кодека : V_MPEG4/ISO/AVC
Продолжительность : 1 ч. 47 м.
Битрейт : 3919 Кбит/сек
Ширина : 1280 пикселей
Высота : 532 пикселя
Соотношение сторон : 2,40:1
Режим частоты кадров : Постоянный
Частота кадров : 24,000 кадра/сек
Цветовое пространство : YUV
Субдискретизация насыщенности : 4:2:0
Битовая глубина : 8 бит
Тип развёртки : Прогрессивная
Бит/(Пиксели*Кадры) : 0.240
Размер потока : 2,93 Гбайт (82%)
Язык : English
Default : Да
Forced : Нет
Цветовой диапазон : Limited
Основные цвета : BT.709
Характеристики трансфера : BT.709
Коэффициенты матрицы : BT.709

Аудио #1
Идентификатор : 2
Формат : AC-3
Формат/Информация : Audio Coding 3
Параметр Endianness формата : Big
Идентификатор кодека : A_AC3
Продолжительность : 1 ч. 47 м.
Вид битрейта : Постоянный
Битрейт : 384 Кбит/сек
Каналы : 6 каналов
Расположение каналов : Front: L C R, Side: L R, LFE
Частота : 48,0 КГц
Частота кадров : 31,250 кадров/сек (1536 spf)
Битовая глубина : 16 бит
Метод сжатия : С потерями
Размер потока : 294 Мбайт (8%)
Заголовок : iTunes
Язык : Russian
ServiceKind/String : Complete Main
Default : Да
Forced : Нет

Аудио #2
Идентификатор : 3
Формат : AC-3
Формат/Информация : Audio Coding 3
Параметр Endianness формата : Big
Идентификатор кодека : A_AC3
Продолжительность : 1 ч. 47 м.
Вид битрейта : Постоянный
Битрейт : 384 Кбит/сек
Каналы : 6 каналов
Расположение каналов : Front: L C R, Side: L R, LFE
Частота : 48,0 КГц
Частота кадров : 31,250 кадров/сек (1536 spf)
Битовая глубина : 16 бит
Метод сжатия : С потерями
Размер потока : 294 Мбайт (8%)
Заголовок : Original
Язык : English
ServiceKind/String : Complete Main
Default : Нет
Forced : Нет

Текст #1
Идентификатор : 4
Формат : UTF-8
Идентификатор кодека : S_TEXT/UTF8
Идентификатор кодека/Информация : UTF-8 Plain Text
Заголовок : Forced
Язык : Russian
Default : Да
Forced : Нет

Текст #2
Идентификатор : 5
Формат : UTF-8
Идентификатор кодека : S_TEXT/UTF8
Идентификатор кодека/Информация : UTF-8 Plain Text
Заголовок : Full
Язык : Russian
Default : Нет
Forced : Нет

Текст #3
Идентификатор : 6
Формат : UTF-8
Идентификатор кодека : S_TEXT/UTF8
Идентификатор кодека/Информация : UTF-8 Plain Text
Заголовок : Full
Язык : English
Default : Нет
Forced : Нет

Текст #4
Идентификатор : 7
Формат : UTF-8
Идентификатор кодека : S_TEXT/UTF8
Идентификатор кодека/Информация : UTF-8 Plain Text
Заголовок : SDH (Colored)
Язык : English
Default : Нет
Forced : Нет

Меню
00:00:00.000 : en:Chapter 1
00:07:08.000 : en:Chapter 2
00:11:59.000 : en:Chapter 3
00:22:37.000 : en:Chapter 4
00:27:55.000 : en:Chapter 5
00:38:26.000 : en:Chapter 6
00:46:58.000 : en:Chapter 7
00:52:44.000 : en:Chapter 8
01:02:09.000 : en:Chapter 9
01:11:49.000 : en:Chapter 10
01:18:34.000 : en:Chapter 11
01:28:41.000 : en:Chapter 12
01:37:56.000 : en:Chapter 13
pb.wtf



Скачать Три икса: Мировое господство через торрент http://i5.imageban.ru/out/2017/05/03/be6d5ed2638d5b10a9e7193ba13166b2.jpg Скачать фильм Три икса: Мировое господство через торрент бесплантно в хорошем качестве Описание: Ксандер Кейдж спустя годы возвращается из добровольного изгнания и попадает в безумный водоворот событий. Он собирает команду ... 9.9 10 16
Торрент: Зарегистрирован [2017-05-03 19:22] · скачан: 335 раз
Статус: √ проверено
Размер: 3.58 GB
Как cкачать? Как скачать Три икса: Мировое господство через торрент | qTorrent

% Раздел Тема Автор DL S | L
3D Видео (48-60 fps) [ 4.58 GB ] Три икса: Мировое господство в 3D / xXx: Return of Xander Cage in 3D [2017 BDRip 720p / 60 FPS ] Анаглиф от R.G. HD-Films slaventi-69 Скачать
2 | 0
Ultra HD (UHD: 2K, 4K, 8K) — видео сверхвысокой чёткости [ 60.25 GB ] Три икса: Мировое господство / xXx: Return of Xander Cage [2016 UHD Blu-ray 2160p] DUB + AVO sheker187 Скачать
1 | 0
Ultra HD (UHD: 2K, 4K, 8K) — видео сверхвысокой чёткости [ 55.73 GB ] Три икса: Мировое господство / xXx: Return of Xander Cage [2017 UHD BDRemux 2160p] AVO [Живов] +DUB [] bober100 Скачать
1 | 0
Фильмы [HD 720p, 1080p] (Хороший звук DUB, MVO) [ 10.46 GB ] Три икса: Мировое господство / xXx: Return of Xander Cage [2016 BDRip 1080p] - sheker187 Скачать
1 | 0
Фильмы без перевода [ 22.34 GB ] Три икса: Мировое господство / xXx: Return of Xander Cage [2017 BD Remux] [Оригинал-ENG] smaster Скачать
1 | 0
Фильмы 2017 [DVDrip, WEB-DLRip, HDrip] (DUB, MVO) [ 1.46 GB ] Три икса: Мировое господство / xXx: Return of Xander Cage [2017 BDRip] - [] Twi7ter Скачать
1 | 0
Фильмы 2017 [DVDrip, WEB-DLRip, HDrip] (DUB, MVO) [ 2.18 GB ] Три икса: Мировое господство / xXx: Return of Xander Cage [2017 BDRip] - [] Twi7ter Скачать
1 | 0

28-11-2019 20:33  

Отключить всю рекламу на сайте

    Дорогой пользователь! Огромная просьба, поблагодарите релизера, оцените раздачу и оставьте свои комментарий, если Вы скачали Три икса: Мировое господство через торрент бесплатно! Внесите свою лепту в развитие PiratBit!
    Комментировать посты могут только пользователи прошедшие не сложную регистрацию
    Показать сообщения:    

    Три икса: Мировое господство через торрент
    Скачать бесплатно Три икса: Мировое господство
    Три икса: Мировое господство скачать торрент
    Три икса: Мировое господство смотреть онлайн
    Cкачать фильм Три икса: Мировое господство бесплатно
    Три икса: Мировое господство скачать торрент в хорошем качестве
    Три икса: Мировое господство смотреть онлайн бесплатно в хорошем качестве


    Вы не можете начинать темы
    Вы не можете отвечать на сообщения
    Вы не можете редактировать свои сообщения
    Вы не можете удалять свои сообщения
    Вы не можете голосовать в опросах
    Вы не можете прикреплять файлы к сообщениям
    Вы можете скачивать файлы