2 сезон

iTunes

MVO

1

2 сезон

iTunes

iTunes

1 сезон

RePack

30

Новинка

ВАЖНО

ИГРА 18+

pack

RePack

MK11
pack

Легкие деньги

RePack

jed

RePack

fifa19

RePack

RDR2

RePack

NEED FOR SPEED™ PAYBACK

4 сезон

9 сезон

Бесстыжие 9 сезон

Все сериалы

все сериалы на PB.wtf

RePack

FAR CRY 5

Anonymous, добрый день, мы не успеваем собрать деньги на оплату серверов за декабрь и январь, помогите нам пожалуйста в это трудное время. В качестве благодарности мы отключим Вам всю рекламу на сайте (укажите свой ник в строку Ваше имя)!

×
  
Magnet ссылка

Три икса: Мировое господство / xXx: Return of Xander Cage (Ди Джей Карузо) [2017, боевик, триллер, приключения, HDRip-AVC] Дубляж - [Лицензия] - ExKinoRay pb.wtf

Три икса: Мировое господство через торрент pb.wtf

Размер: 2.42 GB | Добавлен: 3 года 7 мес. назад | Торрент скачан:624 раза
Скачать  

03-05-2017 20:25 Три икса: Мировое господство Скачать торрент  

Информация о фильме
Название: Три икса: Мировое господство
Оригинальное название: xXx: Return of Xander Cage
Год выпуска: 2017
Страна: США
Студия: Maple Cage Productions, One Race Films, Revolution Studios Rox Productions
Жанр: Боевик, триллер, приключения
Продолжительность: 01:46:46
Перевод: Дублированный | Лицензия
Режиссер: Д. Дж. Карузо
В ролях: Вин Дизель, Донни Йен, Дипика Падукон, Крис У, Руби Роуз, Тони Джаа, Нина Добрев, Рори МакКанн, Тони Коллетт, Сэмюэл Л. Джексон, Айс Кьюб, Гермиона Корфилд, Тони Гонзалез, Майкл Биспинг, Ал Сапиенца, Найджел Беннетт

Описание: Правительство США поручает группе чистильщиков бассейнов и прочим любителям экстремальных ощущений найти секретное оружие возмездия под названием "Ящик Пандоры". Во главе команды становится Ксандер Кейдж, принудительно возвращенный из добровольного отпуска. Дело осложняется тем, что на поиски таинственного устройства уже выдвинулись летучие отряды паркурщиков, сборная отъявленных скейтбордистов в тяжелом весе и профессиональные художники стрит-арта.

rating

Файл
Качество: HDRip (AVC)
Видео: MPEG-4 AVC, 1024x428 (2.40:1),~ 2155 kbps avg, 0.205 bit/pixel
Аудио1: AC-3, 48.0 KHz, 5.1 ch, 448 Kbps, CBR (Russian)
Аудио2: AC-3, 48.0 KHz, 2.0 ch, 192 Kbps, CBR (Ukrainian)
Аудио3: AC-3, 48.0 KHz, 5.1 ch, 448 Kbps, CBR (English)
Субтитры: Русские (форсированные, полные), украинские (форсированные, полные), английские (full, SDH Colored)
General
Unique ID : 234708018253983655767217211558869660338 (0xB0931EBBE12566C3BC8639B12E84F2B2)
Complete name : D:\xXx.Return.of.Xander.Cage.2017.D.HDRip.AVC.ExKinoRay.mkv
Format : Matroska
Format version : Version 2
File size : 2.42 GiB
Duration : 1 h 46 min
Overall bit rate : 3 244 kb/s
Movie name : xXx Return of Xander Cage 2017 from ExKinoRay
Encoded date : UTC 2017-05-25 21:28:11
Writing application : mkvmerge v5.8.0 ('No Sleep / Pillow') built on Sep 2 2012 15:37:04
Writing library : libebml v1.2.3 + libmatroska v1.3.0

Video
ID : 1
Format : AVC
Format/Info : Advanced Video Codec
Format profile : High@L4.1
Format settings, CABAC : Yes
Format settings, ReFrames : 11 frames
Codec ID : V_MPEG4/ISO/AVC
Duration : 1 h 46 min
Bit rate : 2 155 kb/s
Width : 1 024 pixels
Height : 428 pixels
Display aspect ratio : 2.40:1
Frame rate mode : Constant
Frame rate : 23.976 (24000/1001) FPS
Color space : YUV
Chroma subsampling : 4:2:0
Bit depth : 8 bits
Scan type : Progressive
Bits/(Pixel*Frame) : 0.205
Stream size : 1.56 GiB (64%)
Title : Enigma
Writing library : x264 core 144 r2525 40bb568
Encoding settings : cabac=1 / ref=11 / deblock=1:-3:-3 / analyse=0x3:0x113 / me=umh / subme=10 / psy=1 / psy_rd=1.00:0.08 / mixed_ref=1 / me_range=32 / chroma_me=1 / trellis=2 / 8x8dct=1 / cqm=0 / deadzone=21,11 / fast_pskip=1 / chroma_qp_offset=-3 / threads=12 / lookahead_threads=3 / sliced_threads=0 / nr=0 / decimate=0 / interlaced=0 / bluray_compat=0 / constrained_intra=0 / bframes=10 / b_pyramid=2 / b_adapt=2 / b_bias=0 / direct=3 / weightb=1 / open_gop=0 / weightp=2 / keyint=240 / keyint_min=23 / scenecut=40 / intra_refresh=0 / rc_lookahead=40 / rc=2pass / mbtree=0 / bitrate=2155 / ratetol=1.0 / qcomp=0.61 / qpmin=0 / qpmax=51 / qpstep=4 / cplxblur=20.0 / qblur=0.5 / vbv_maxrate=50000 / vbv_bufsize=62500 / nal_hrd=none / filler=0 / ip_ratio=1.40 / pb_ratio=1.30 / aq=1:1.00
Language : English
Default : Yes
Forced : No
Color range : Limited
Color primaries : BT.709
Transfer characteristics : BT.709
Matrix coefficients : BT.709

Audio #1
ID : 2
Format : AC-3
Format/Info : Audio Coding 3
Mode extension : CM (complete main)
Format settings, Endianness : Big
Codec ID : A_AC3
Duration : 1 h 46 min
Bit rate mode : Constant
Bit rate : 448 kb/s
Channel(s) : 6 channels
Channel positions : Front: L C R, Side: L R, LFE
Sampling rate : 48.0 kHz
Frame rate : 31.250 FPS (1536 spf)
Compression mode : Lossy
Stream size : 342 MiB (14%)
Title : Dub (Лицензия)
Language : Russian
Default : Yes
Forced : No

Audio #2
ID : 3
Format : AC-3
Format/Info : Audio Coding 3
Mode extension : CM (complete main)
Format settings, Endianness : Big
Codec ID : A_AC3
Duration : 1 h 46 min
Bit rate mode : Constant
Bit rate : 192 kb/s
Channel(s) : 2 channels
Channel positions : Front: L R
Sampling rate : 48.0 kHz
Frame rate : 31.250 FPS (1536 spf)
Compression mode : Lossy
Stream size : 147 MiB (6%)
Language : Ukrainian
Default : No
Forced : No

Audio #3
ID : 4
Format : AC-3
Format/Info : Audio Coding 3
Mode extension : CM (complete main)
Format settings, Endianness : Big
Codec ID : A_AC3
Duration : 1 h 46 min
Bit rate mode : Constant
Bit rate : 448 kb/s
Channel(s) : 6 channels
Channel positions : Front: L C R, Side: L R, LFE
Sampling rate : 48.0 kHz
Frame rate : 31.250 FPS (1536 spf)
Compression mode : Lossy
Stream size : 342 MiB (14%)
Language : English
Default : No
Forced : No

Text #1
ID : 5
Format : UTF-8
Codec ID : S_TEXT/UTF8
Codec ID/Info : UTF-8 Plain Text
Title : Forced
Language : Russian
Default : Yes
Forced : No

Text #2
ID : 6
Format : UTF-8
Codec ID : S_TEXT/UTF8
Codec ID/Info : UTF-8 Plain Text
Title : Full
Language : Russian
Default : No
Forced : No

Text #3
ID : 7
Format : UTF-8
Codec ID : S_TEXT/UTF8
Codec ID/Info : UTF-8 Plain Text
Title : Forced
Language : Ukrainian
Default : No
Forced : No

Text #4
ID : 8
Format : UTF-8
Codec ID : S_TEXT/UTF8
Codec ID/Info : UTF-8 Plain Text
Title : Full
Language : Ukrainian
Default : No
Forced : No

Text #5
ID : 9
Format : UTF-8
Codec ID : S_TEXT/UTF8
Codec ID/Info : UTF-8 Plain Text
Title : Full
Language : English
Default : No
Forced : No

Text #6
ID : 10
Format : UTF-8
Codec ID : S_TEXT/UTF8
Codec ID/Info : UTF-8 Plain Text
Title : SDH (Colored)
Language : English
Default : No
Forced : No

Menu
00:00:00.000 : en:00:00:00.000
00:07:09.137 : en:00:07:09.137
00:12:00.511 : en:00:12:00.511
00:22:38.107 : en:00:22:38.107
00:27:56.258 : en:00:27:56.258
00:38:27.764 : en:00:38:27.764
00:46:59.650 : en:00:46:59.650
00:52:45.621 : en:00:52:45.621
01:02:10.060 : en:01:02:10.060
01:11:50.181 : en:01:11:50.181
01:18:35.252 : en:01:18:35.252
01:28:42.734 : en:01:28:42.734
01:37:57.163 : en:01:37:57.163
Релиз от:

Автор релиза: pb.wtf



Скачать Три икса: Мировое господство через торрент http://i069.radikal.ru/1705/13/08bb04ffdf25.jpg Скачать фильм Три икса: Мировое господство через торрент бесплантно в хорошем качестве Описание: Правительство США поручает группе чистильщиков бассейнов и прочим любителям экстремальных ощущений найти секретное оружие ... 9.6 10 67
Info! Золотая раздача, скачанное не засчитывается.
Торрент: Зарегистрирован [2017-05-26 00:33] · скачан: 624 раз
Статус: √ проверено
Размер: 2.42 GB
Как cкачать? Как скачать Три икса: Мировое господство через торрент | UTorrent



Последний раз редактировалось: Enigma2010 (2017-05-26 00:33), всего редактировалось 2 раз(а)

28-11-2019 20:33  

Отключить всю рекламу на сайте

06-05-2017 10:36 Три икса: Мировое господство Скачать торрент  

Описание фильма на все 100 соответствует содержанию Интересно на зрителей какого возраста расчитан этот фильм? Для 12 слишком много девок в бикини, для 15 - слишком тупые диалоги и сценарий
Фильм - гамно, не тратьте время pb.wtf



10-05-2017 14:49 Три икса: Мировое господство Скачать торрент  

Че-то напоминает индийские боевики, вообще уровень опустился ниже планки...pb.wtf



13-05-2017 15:17 Три икса: Мировое господство Скачать торрент  

Мусор в параше выглядит презентабельнееpb.wtf



13-05-2017 23:10 Три икса: Мировое господство Скачать торрент  

смотрел ))) порадовало ) прикольные трюки и сцены боёв )pb.wtf



14-05-2017 01:33 Три икса: Мировое господство Скачать торрент  

и в сша умеют пилить бюджетpb.wtf



26-05-2017 00:35 Три икса: Мировое господство Скачать торрент  

Замена на лицензию.pb.wtf



26-05-2017 04:48 Три икса: Мировое господство Скачать торрент  

Описание 10/10 а фильм не стоит вниманияpb.wtf



26-05-2017 11:43 Три икса: Мировое господство Скачать торрент  

Писец!!! и это авно про три икс!!! Как же низко пало это кино, а в месте с ним и Вин Дизель, теперь уже походу карбюраторик.pb.wtf



    Дорогой пользователь! Огромная просьба, поблагодарите релизера, оцените раздачу и оставьте свои комментарий, если Вы скачали Три икса: Мировое господство через торрент бесплатно! Внесите свою лепту в развитие PiratBit!
    Комментировать посты могут только пользователи прошедшие не сложную регистрацию
    Показать сообщения:    

    Три икса: Мировое господство через торрент
    Скачать бесплатно Три икса: Мировое господство
    Три икса: Мировое господство скачать торрент
    Три икса: Мировое господство смотреть онлайн
    Cкачать фильм Три икса: Мировое господство бесплатно
    Три икса: Мировое господство скачать торрент в хорошем качестве
    Три икса: Мировое господство смотреть онлайн бесплатно в хорошем качестве


    Вы не можете начинать темы
    Вы не можете отвечать на сообщения
    Вы не можете редактировать свои сообщения
    Вы не можете удалять свои сообщения
    Вы не можете голосовать в опросах
    Вы не можете прикреплять файлы к сообщениям
    Вы можете скачивать файлы