новый адрес
Ссылка на приватное зеркало всего за 1$. Внимание количество ограничено!!!

iTunes

1+1

iTunes

мы

WEB-DL

1

iTunes

Чернобыль

iTunes

Ральф против интернета

Лицензия

ПШазам

Лицензия

Оно 2

Лицензия

30
pack

Вам бонус

ВАЖНО

!!Акция!!

Alien_RageХит недели

RePack

Resident Evil 21

ИГРА 18+

pack

RePack

jed

!!Акция!!

Alien_Rage

RePack

fifa19

RePack

Assassins Creed: Odyssey

RePack

NEED FOR SPEED™ PAYBACK

3 сезон

9 сезон

Бесстыжие 9 сезон

Все сериалы

все сериалы на PB.wtf

RePack

FAR CRY 5
Ребята, катастрофически не хватает 1900р. для оплаты серверов за Октябрь (всвязи с блокировками трафик упал в 3 раза), 1-2р., выручайте.
  

Турнир на выживание / The Tournament (Скотт Манн) [2009 г., боевик, триллер, BDRip 720p, MVO] pb.wtf

Турнир на выживание через торрент pb.wtf

Размер: 5.17 GB | Добавлен: 2 года 7 мес. назад | Торрент скачан:219 раз
Скачать  

04-05-2017 06:09 Турнир на выживание Скачать торрент  

Турнир на выживание / The Tournament
Год выпуска: 2009
Страна: Великобритания, США
Жанр: боевик, триллер
Продолжительность: 01:32:14
Перевод: Профессиональный (многоголосый)
Субтитры: отсутствуют

Режиссер: Скотт Манн

rating

В ролях: Роберт Карлайл, Келли Ху, Иен Сомерхолдер, Лиам Каннингэм, Винг Реймз, Себастьен Фукан, Крэйг Конуэй, Джон Линч, Ник Роунтри, Рэйчел Грант

Описание: Каждые семь лет в одном из городов проходит необычный турнир. Наемные убийцы со всего мира приезжают туда, чтобы показать свое кровавое мастерство. Каждый раз их должно быть ровно тридцать, но победитель будет только один! Он получит звание лучшего в своем «деле» и 10 миллионов долларов в придачу. Но, есть и другие участники турнира — те, кто у экранов мониторов, вдали от «арены», внимательно следят за смертельными поединками. Они наблюдают не из простого любопытства — они сделали крупные ставки, каждый выбрав своего бойца. Это и есть истинные игроки…

Качество: BDRip 720p
Формат: MKV
Видео кодек: H.264
Аудио кодек: AC3, DTS
Видео: AVC, 1280x720 (16:9), 23.976 fps ~ 5879 Kbps
Аудио#1: 48 KHz 6 ch ~ 640 Kb/s (русский)
Аудио#2: 48 KHz 6 ch ~ 1510 Kb/s (английский)
скриншот   скриншот   скриншот   скриншот   скриншот   скриншот   скриншот  

Общее
Уникальный идентификатор : 223470879352532710196913160228192971743 (0xA81EED02D33FC074AFDBD2E69CC4EBDF)
Полное имя : Q:\TorF\The.Tournament.2009.BDRip.720p.mkv
Формат : Matroska
Версия формата : Version 2
Размер файла : 5,17 Гбайт
Продолжительность : 1 ч. 32 м.
Общий поток : 8030 Кбит/сек
Дата кодирования : UTC 2010-01-24 17:54:26
Программа кодирования : mkvmerge v3.0.0 ('Hang up your Hang-Ups') built on Dec 12 2009 15:20:35
Библиотека кодирования : libebml v0.7.9 + libmatroska v0.8.1

Видео
Идентификатор : 1
Формат : AVC
Формат/Информация : Advanced Video Codec
Профиль формата : High@L4.1
Параметр CABAC формата : Да
Параметр ReFrames формата : 9 кадров
Идентификатор кодека : V_MPEG4/ISO/AVC
Продолжительность : 1 ч. 32 м.
Битрейт : 5879 Кбит/сек
Ширина : 1280 пикселей
Высота : 720 пикселей
Соотношение сторон : 16:9
Частота кадров : 23,976 кадра/сек
Цветовое пространство : YUV
Субдискретизация насыщенности : 4:2:0
Битовая глубина : 8 бит
Тип развёртки : Прогрессивная
Бит/(Пиксели*Кадры) : 0.266
Размер потока : 3,69 Гбайт (71%)
Библиотека кодирования : x264 core 80 r1376 3feaec2
Настройки программы : cabac=1 / ref=9 / deblock=1:-3:-3 / analyse=0x3:0x113 / me=umh / subme=10 / psy=1 / psy_rd=0.9:0.0 / mixed_ref=1 / me_range=48 / chroma_me=1 / trellis=2 / 8x8dct=1 / cqm=0 / deadzone=21,11 / fast_pskip=0 / chroma_qp_offset=-2 / threads=3 / sliced_threads=0 / nr=0 / decimate=1 / mbaff=0 / constrained_intra=0 / bframes=6 / b_pyramid=2 / b_adapt=2 / b_bias=0 / direct=3 / wpredb=1 / wpredp=2 / keyint=250 / keyint_min=25 / scenecut=40 / rc_lookahead=0 / rc=2pass / mbtree=0 / bitrate=5879 / ratetol=1.0 / qcomp=0.60 / qpmin=10 / qpmax=51 / qpstep=4 / cplxblur=20.0 / qblur=0.5 / vbv_maxrate=50000 / vbv_bufsize=62500 / ip_ratio=1.40 / pb_ratio=1.30 / aq=1:1.00
Default : Да
Forced : Нет

Аудио #1
Идентификатор : 2
Формат : AC-3
Формат/Информация : Audio Coding 3
Расширение режима : CM (complete main)
Идентификатор кодека : A_AC3
Продолжительность : 1 ч. 32 м.
Вид битрейта : Постоянный
Битрейт : 640 Кбит/сек
Каналы : 6 каналов
Расположение каналов : Front: L C R, Side: L R, LFE
Частота : 48,0 КГц
Битовая глубина : 16 бит
Метод сжатия : С потерями
Размер потока : 422 Мбайт (8%)
Язык : Russian
Default : Да
Forced : Нет

Аудио #2
Идентификатор : 3
Формат : DTS
Формат/Информация : Digital Theater Systems
Идентификатор кодека : A_DTS
Продолжительность : 1 ч. 32 м.
Вид битрейта : Постоянный
Битрейт : 1510 Кбит/сек
Каналы : 6 каналов
Расположение каналов : Front: L C R, Side: L R, LFE
Частота : 48,0 КГц
Битовая глубина : 24 бит
Метод сжатия : С потерями
Размер потока : 996 Мбайт (19%)
Язык : English
Default : Нет
Forced : Нет

pb.wtf



Скачать Турнир на выживание через торрент http://pic.kartinco.top/images/11/tx2fg.jpg Скачать фильм Турнир на выживание через торрент бесплантно в хорошем качестве Описание: Каждые семь лет в одном из городов проходит необычный турнир. Наемные убийцы со всего мира приезжают туда, чтобы показать свое ... 8.3 10 7
Info! Золотая раздача, скачанное не засчитывается.
Торрент: Зарегистрирован [2017-05-04 06:09] · скачан: 219 раз
Статус: √ проверено
Размер: 5.17 GB
Как cкачать? Как скачать Турнир на выживание через торрент | qTorrent

% Раздел Тема Автор DL S | L
Фильмы (Blu-ray, BD-Remux, HDDVD) [ 18.44 GB ] Турнир на выживание / The Tournament [2009 BD-Remux] 2*MVO+AVO+SUBs+Original Assasinca Скачать
1 | 0
Фильмы 2009 [ 1.46 GB ] Турнир на выживание / Tournament The [2009 HDRip] ACFIORENTINA Скачать
1 | 0
Фильмы 2009 [ 2.18 GB ] Турнир на выживание / The Tournament [2009 HDRip MVO + оригинал] markfiter Скачать
1 | 0
Фильмы 2009 [ 1.71 GB ] Турнир на выживание / The Tournament [2009 BDRip][Полная версия](лицензия] MVO + Original -=Cherry=- Скачать
1 | 0

28-11-2019 20:33  

Отключить всю рекламу на сайте

04-05-2017 07:45 Турнир на выживание Скачать торрент  

Был фильм такой Крутые стволы с Кристофером Ламбертом. Поглядим. Спасибо.pb.wtf



    Дорогой пользователь! Огромная просьба, поблагодарите релизера, оцените раздачу и оставьте свои комментарий, если Вы скачали Турнир на выживание через торрент бесплатно! Внесите свою лепту в развитие PiratBit!
    Комментировать посты могут только пользователи прошедшие не сложную регистрацию
    Показать сообщения:    

    Турнир на выживание через торрент
    Скачать бесплатно Турнир на выживание
    Турнир на выживание скачать торрент
    Турнир на выживание смотреть онлайн
    Cкачать фильм Турнир на выживание бесплатно
    Турнир на выживание скачать торрент в хорошем качестве
    Турнир на выживание смотреть онлайн бесплатно в хорошем качестве


    Вы не можете начинать темы
    Вы не можете отвечать на сообщения
    Вы не можете редактировать свои сообщения
    Вы не можете удалять свои сообщения
    Вы не можете голосовать в опросах
    Вы не можете прикреплять файлы к сообщениям
    Вы можете скачивать файлы