новый адрес
Ссылка на приватное зеркало всего за 1$. Внимание количество ограничено!!!

iTunes

1+1

iTunes

мы

iTunes

1

iTunes

Чернобыль

iTunes

Ральф против интернета

Лицензия

ПШазам

Лицензия

Оно 2

Лицензия

30
pack

Вам бонус

ВАЖНО

!!Акция!!

Alien_RageХит недели

RePack

Resident Evil 21

ИГРА 18+

pack

RePack

jed

!!Акция!!

Alien_Rage

RePack

fifa19

RePack

Assassins Creed: Odyssey

RePack

NEED FOR SPEED™ PAYBACK

3 сезон

9 сезон

Бесстыжие 9 сезон

Все сериалы

все сериалы на PB.wtf

RePack

FAR CRY 5
Ребята, катастрофически не хватает 1900р. для оплаты серверов за Октябрь (всвязи с блокировками трафик упал в 3 раза), 1-2р., выручайте.
  

Полесская легенда (Петр Василевский, Николай Фигуровский) [1957, драма, SATRip от AVP Studio] pb.wtf

Полесская легенда через торрент pb.wtf

Размер: 1.09 GB | Добавлен: 2 года 6 мес. назад | Торрент скачан:3 раза
Скачать  

04-05-2017 07:15 Полесская легенда Скачать торрент  

Полесская легенда
Страна: СССР
Производство: Беларусьфильм

Жанр: драма
Год выпуска: 1957
Продолжительность: 01:16:54

Перевод: Не требуется
Cубтитры: нет
Оригинальная аудиодорожка: русский

Режиссер: Петр Василевский, Николай Фигуровский

В ролях:
Алла Ларионова, Иван Переверзев, Леонид Кадров, Леонид Рахленко, Владимир Владомирский, Глеб Глебов, Виктор Кулаков, Витя Лазарев...
Об актёрах подробней

Описание:
Экранизация по мотивам рассказа В.Г.Короленко «Лес шумит» (1885).
В имении пана Ивана служит лесником крепостной Роман – верный его холоп. Роман ловит в панском лесу крестьянина Михася, убившего лису (он с маленьким сыном голодает), и ведет его к пану. У пана гости. Их развлекает Опанас – вольный крестьянин, панский песельник. В награду за прекрасное пение пан обещает выполнить любое его желание. Опанас просит дать вольную его невесте – скотнице Оксане. Красота девушки производит впечатление на пана и его гостей, особенно на пана Антония, который просит отдать ему Оксану в обмен на свору собак. Но у пана Ивана другие планы. Он оправляет Опанаса к гродненскому воеводе петь на пиру, и во время его отсутствия силой овладевает Оксаной, а потом решает отдать ее в жены леснику Роману…

Источник: DVB
Качество видео: SATRip
Формат видео: AVI

Видео: 704x528 (4:3), 25 fps, XviD ~ 1828 kbps avg, 0.197 bit/pixel
Аудио: 48 kHz, Dolby Digital AC3 2.0, 192 kbps

Раздача от:
Общее
Полное имя : Polesskaya.legenda.1957.SATRip_[New-team]_by_AVP_Studio.avi
Формат : AVI
Формат/Информация : Audio Video Interleave
Размер файла : 1,09 Гбайт
Продолжительность : 1 ч. 16 м.
Общий поток : 2029 Кбит/сек
Программа кодирования : VirtualDubMod 1.5.10.3 | www.virtualdub-fr.org || (build 2550/release)
Библиотека кодирования : VirtualDubMod build 2550/release

Видео
Идентификатор : 0
Формат : MPEG-4 Visual
Профиль формата : Advanced Simple@L5
Параметр BVOP формата : 1
Параметр QPel формата : Нет
Параметр GMC формата : Без точки перехода
Параметр матрицы формата : Выборочная
Идентификатор кодека : XVID
Идентификатор кодека/Подсказка : XviD
Продолжительность : 1 ч. 16 м.
Битрейт : 1828 Кбит/сек
Ширина : 704 пикселя
Высота : 528 пикселей
Соотношение сторон : 4:3
Частота кадров : 25,000 кадров/сек
Цветовое пространство : YUV
Субдискретизация насыщенности : 4:2:0
Битовая глубина : 8 бит
Тип развёртки : Прогрессивная
Метод сжатия : С потерями
Бит/(Пиксели*Кадры) : 0.197
Размер потока : 1005 Мбайт (90%)
Библиотека кодирования : XviD 73

Аудио
Идентификатор : 1
Формат : AC-3
Формат/Информация : Audio Coding 3
Параметр Endianness формата : Big
Идентификатор кодека : 2000
Продолжительность : 1 ч. 16 м.
Вид битрейта : Постоянный
Битрейт : 192 Кбит/сек
Каналы : 2 канала
Расположение каналов : Front: L R
Частота : 48,0 КГц
Частота кадров : 31,250 кадров/сек (1536 spf)
Битовая глубина : 16 бит
Метод сжатия : С потерями
Размер потока : 106 Мбайт (9%)
Выравнивание : Разделение по промежуткам
Продолжительность промежутка : 40 мс. (1,00 видеокадр)
Время предзагрузки промежутка : 500 мс
pb.wtf



Скачать Полесская легенда через торрент http://s019.radikal.ru/i613/1704/35/7d3efee2711f.png Скачать фильм Полесская легенда через торрент бесплантно в хорошем качестве Описание:Экранизация по мотивам рассказа В.Г.Короленко «Лес шумит» (1885).В имении пана Ивана служит лесником крепостной Роман – верный его ... 5 10 1
Info! Золотая раздача, скачанное не засчитывается.
Торрент: Зарегистрирован [2017-05-04 07:15] · скачан: 3 раз
Статус: √ проверено
Размер: 1.09 GB
Как cкачать? Как скачать Полесская легенда через торрент | qTorrent

% Раздел Тема Автор DL S | L
Кино СССР [ 1.09 GB ] Полесская легенда [1957 SATRip-AVC от AVP Studio] AVP Studio Скачать
1 | 0
    Дорогой пользователь! Огромная просьба, поблагодарите релизера, оцените раздачу и оставьте свои комментарий, если Вы скачали Полесская легенда через торрент бесплатно! Внесите свою лепту в развитие PiratBit!
    Комментировать посты могут только пользователи прошедшие не сложную регистрацию
    Показать сообщения:    

    Полесская легенда через торрент
    Скачать бесплатно Полесская легенда
    Полесская легенда скачать торрент
    Полесская легенда смотреть онлайн
    Cкачать фильм Полесская легенда бесплатно
    Полесская легенда скачать торрент в хорошем качестве
    Полесская легенда смотреть онлайн бесплатно в хорошем качестве


    Вы не можете начинать темы
    Вы не можете отвечать на сообщения
    Вы не можете редактировать свои сообщения
    Вы не можете удалять свои сообщения
    Вы не можете голосовать в опросах
    Вы не можете прикреплять файлы к сообщениям
    Вы можете скачивать файлы