Доктор Стрэндж

Лицензия

Добыча

Дубляж

Уэнсдэй

1 сезон

Тор

Дубляж

В эфире

Дубляж

Там, где раки поют

MVO

Властелин колец

1 сезон

Deluxe

pack

Рекомендуем

30

Пиратка

ВАЖНО

ВАЖНО

Ghostwire

Пиратка

jed

RePack

nioh2

RePack

RDR2

RePack

NEED FOR SPEED™ PAYBACK

RePack

скачать торрент

Кинопоиск HD

Острые козырьки 6 сезон

6 сезон

FAR CRY 6

RePack

скачать торрент

Лицензия

скачать торрент

MVO

1

1 сезон

скачать торрент

1 сезон

скачать торрент

Лицензия

  

БайБайМэн / The Bye Bye Man (Стэйси Тайтл) [2017, ужасы, триллер, BDRemux 1080p] [Расширенная версия] Дубляж - (iTunes, вставки VO BadBajo)

БайБайМэн через торрент pb.wtf

Размер: 21.17 GB | Добавлен: 5 лет 7 мес. назад | Торрент скачан:23 раза
Смотреть онлайн | Скачать   

04-05-2017 09:34 БайБайМэн Скачать торрент  

БайБайМэн / The Bye Bye Man
Расширенная версия

Год выпуска: 2017
Страна: США
Жанр: ужасы, триллер

Продолжительность: 01:39:48
Перевод: Дубляж - [iTunes] + VO [BadBajo]
Примечание: Unrated версия, длиннее театральной на три с половиной минуты.
На местах без перевода (около двух минут), вставки с одноголосой озвучки BadBajo.

Субтитры: английские
Режиссер: Стэйси Тайтл
В ролях:

Дуглас Смит (Elliot), Люсьен Лависконт (John), Крессида Бонас (Sasha), Даг Джонс (The Bye Bye Man), Майкл Трукко (Virgil), Дженна Кэнелл (Kim), Эрика Тремблэй (Alice), Мариса Эчеверриа (Trina), Клео Кинг (Mrs. Watkins), Фэй Данауэй (Widow Redmon), Кэрри-Энн Мосс (Detective Shaw), Ли Уоннелл (Larry)
Описание:
Трое студентов колледжа сталкиваются со всемогущим злым духом по прозвищу БайБайМэн. Героям необходимо найти способ спастись от мистического убийцы, о котором нельзя никому рассказывать, ведь он забирает любого, кто знает его имя или думает о нем.
Рейтинг:

MPAA: PG-13 - Детям до 13 лет просмотр не желателен
Качество: BDRemux 1080p
Формат: MKV
Видео: AVC, 1920x1080 (16:9), 26312 kbps, 23,976 fps, 0,529 bpp
Аудио №1: русский / AC3 / 5.1 / 48 kHz / 384 kbps / |Дубляж + VO|
Аудио №2: английский / DTS-HD МА / 5.1 / 48 kHz / 3659 kbps / 24 bit (Core: 5.1 / 48 kHz / 1509 kbps / 24 bit)
Навигация по главам: есть
Релиз от:
General
Unique ID : 179367800244841286812215513832102514611 (0x86F0FB544C60EC48B4A3F7D6EF974FB3)
Complete name : F:VideoThe.Bye.Bye.Man.2017.D.BDREMUX.1080p.ExKinoRay.mkv
Format : Matroska
Format version : Version 4 / Version 2
File size : 21.2 GiB
Duration : 1 h 39 min
Overall bit rate mode : Variable
Overall bit rate : 30.4 Mb/s
Encoded date : UTC 2017-05-04 12:43:44
Writing application : mkvmerge v11.0.0 ('Alive') 64bit
Writing library : libebml v1.3.4 + libmatroska v1.4.5

Video
ID : 1
Format : AVC
Format/Info : Advanced Video Codec
Format profile : [email protected]
Format settings, CABAC : Yes
Format settings, ReFrames : 4 frames
Format settings, GOP : M=3, N=12
Codec ID : V_MPEG4/ISO/AVC
Duration : 1 h 39 min
Bit rate mode : Variable
Bit rate : 26.3 Mb/s
Maximum bit rate : 35.0 Mb/s
Width : 1 920 pixels
Height : 1 080 pixels
Display aspect ratio : 16:9
Frame rate mode : Constant
Frame rate : 23.976 (24000/1001) FPS
Color space : YUV
Chroma subsampling : 4:2:0
Bit depth : 8 bits
Scan type : Progressive
Bits/(Pixel*Frame) : 0.529
Stream size : 18.3 GiB (87%)
Language : English
Default : Yes
Forced : No

Audio #1
ID : 2
Format : AC-3
Format/Info : Audio Coding 3
Format settings, Endianness : Big
Codec ID : A_AC3
Duration : 1 h 39 min
Bit rate mode : Constant
Bit rate : 384 kb/s
Channel(s) : 6 channels
Channel positions : Front: L C R, Side: L R, LFE
Sampling rate : 48.0 kHz
Frame rate : 31.250 FPS (1536 spf)
Bit depth : 16 bits
Compression mode : Lossy
Stream size : 274 MiB (1%)
Language : Russian
Service kind : Complete Main
Default : Yes
Forced : No

Audio #2
ID : 3
Format : DTS
Format/Info : Digital Theater Systems
Format profile : MA / Core
Mode : 16
Format settings, Endianness : Big
Codec ID : A_DTS
Duration : 1 h 39 min
Bit rate mode : Variable / Constant
Bit rate : 3 660 kb/s / 1 509 kb/s
Channel(s) : 6 channels
Channel positions : Front: L C R, Side: L R, LFE
Sampling rate : 48.0 kHz
Frame rate : 93.750 FPS (512 spf)
Bit depth : 24 bits
Compression mode : Lossless / Lossy
Stream size : 2.55 GiB (12%)
Language : English
Default : No
Forced : No

Text
ID : 4
Format : UTF-8
Codec ID : S_TEXT/UTF8
Codec ID/Info : UTF-8 Plain Text
Duration : 1 h 31 min
Bit rate : 92 b/s
Count of elements : 1157
Stream size : 61.9 KiB (0%)
Title : Full (Colored)
Language : English
Default : No
Forced : No

Menu
00:00:00.000 : en:Chapter 01
00:06:11.621 : en:Chapter 02
00:11:44.870 : en:Chapter 03
00:16:33.951 : en:Chapter 04
00:20:57.506 : en:Chapter 05
00:26:35.760 : en:Chapter 06
00:30:00.298 : en:Chapter 07
00:34:58.179 : en:Chapter 08
00:39:18.355 : en:Chapter 09
00:42:49.149 : en:Chapter 10
00:47:51.827 : en:Chapter 11
00:52:59.926 : en:Chapter 12
00:57:53.052 : en:Chapter 13
01:02:57.398 : en:Chapter 14
01:07:04.603 : en:Chapter 15
01:11:01.799 : en:Chapter 16
01:18:19.611 : en:Chapter 17
01:22:39.037 : en:Chapter 18
01:30:45.022 : en:Chapter 19
01:33:25.016 : en:Chapter 20
01:39:48.148 : en:Chapter 21



Скачать БайБайМэн через торрент http://i6-imageban-ru.translate.goog/out/2017/05/04/0cdb93140e7f7d3dc55e226dddea6a91.jpg Скачать, смотреть онлайн БайБайМэн бесплантно в хорошем качестве Описание: Трое студентов колледжа сталкиваются со всемогущим злым духом по прозвищу БайБайМэн. Героям необходимо найти способ спастись от ... 10 10 3
× Info от релизера! Торрент перезалит, устранен рассинхрон.
Info! Золотая раздача, скачанное не засчитывается.
Торрент: Зарегистрирован [2017-05-04 14:05] · скачан: 23 раз
Статус: √ проверено
Размер: 21.17 GB
Как cкачать? Как скачать БайБайМэн через торрент | UTorrent

% Раздел Тема Автор DL S | L
Фильмы 2017 [DVDrip, WEB-DLRip, HDrip] (DUB, MVO) [ 1.37 GB ] БайБайМэн / The Bye Bye Man | iTunes | BDRip, Дубляж iTunes oleg8 Скачать
1 | 0
Фильмы 2017 [DVDrip, WEB-DLRip, HDrip] (DUB, MVO) [ 1.42 GB ] БайБайМэн / The Bye Bye Man | Лицензия | BDRip Twi7ter Скачать
1 | 0
Фильмы 2017 [DVDrip, WEB-DLRip, HDrip] (DUB, MVO) [ 1.68 GB ] БайБайМэн / The Bye Bye Man | iTunes | BDRip-AVC, Дубляж iTunes Enigma2010 Скачать
1 | 0
Фильмы 2017 [DVDrip, WEB-DLRip, HDrip] (DUB, MVO) [ 1.42 GB ] БайБайМэн / The Bye Bye Man | Лицензия | BDRip Twi7ter Скачать
1 | 0
Фильмы [HD 720p, 1080p] (Хороший звук DUB, MVO) [ 10.08 GB ] БайБайМэн / The Bye Bye Man | iTunes | 1080p -Lexx- Скачать
1 | 0



Последний раз редактировалось: -Lexx- (2017-05-04 14:05), всего редактировалось 1 раз

28-11-2019 20:33  


Отключить вcю реклaмy на сайте, в т.ч. и в плеере онлайн просмотра!

    Дорогой пользователь! Огромная просьба, поблагодарите релизера, оцените раздачу и оставьте свои комментарий, если Вы скачали БайБайМэн через торрент бесплатно!!
    Комментировать посты могут только пользователи прошедшие не сложную регистрацию
    Показать сообщения:    


    БайБайМэн через торрент
    Скачать бесплатно БайБайМэн
    БайБайМэн скачать торрент
    БайБайМэн смотреть онлайн
    Cкачать фильм БайБайМэн бесплатно
    БайБайМэн скачать торрент в хорошем качестве
    БайБайМэн смотреть онлайн бесплатно в хорошем качестве
    Вы не можете начинать темы
    Вы не можете отвечать на сообщения
    Вы не можете редактировать свои сообщения
    Вы не можете удалять свои сообщения
    Вы не можете голосовать в опросах
    Вы не можете прикреплять файлы к сообщениям
    Вы можете скачивать файлы
    БайБайМэн / The Bye Bye Man [2017, ужасы, триллер, BDRemux 1080p] [Расширенная версия] Дубляж - смотреть онлайн, скачать торрент picoco.icu