2 сезон

iTunes

MVO

1

2 сезон

iTunes

iTunes

1 сезон

RePack

30

Новинка

ВАЖНО

ИГРА 18+

pack

RePack

MK11
pack

Легкие деньги

RePack

jed

RePack

fifa19

RePack

RDR2

RePack

NEED FOR SPEED™ PAYBACK

4 сезон

9 сезон

Бесстыжие 9 сезон

Все сериалы

все сериалы на PB.wtf

RePack

FAR CRY 5

Anonymous, добрый вечер, мы не успеваем собрать деньги на оплату серверов за декабрь и январь, помогите нам пожалуйста в это трудное время. В качестве благодарности мы отключим Вам всю рекламу на сайте (укажите свой ник в строку Ваше имя)!

×
  
Magnet ссылка

Мы до сих пор воруем по-старому / We Still Steal the Old Way (Саша Беннетт) [2017 г., Драма, Криминал, HDRip, Любительский (многоголосый)] (Синема УС) pb.wtf

Мы до сих пор воруем по-старому через торрент pb.wtf

Размер: 1.35 GB | Добавлен: 3 года 8 мес. назад | Торрент скачан:322 раза
Скачать  

04-05-2017 14:46 Мы до сих пор воруем по-старому Скачать торрент  

Мы до сих пор воруем по-старому / We Still Steal the Old Way
Год выпуска: 2017
Страна: Великобритания
Жанр: Драма, Криминал
Продолжительность: 01:39:12
Перевод: Любительский (многоголосый)(Синема УС)
Субтитры: нет

Режиссер: Саша Беннетт

Премьера в мире: 9 января 2017

rating

В ролях: Джулиан Гловер, Патрик Бергин, Лизетт Энтони, Иан Огилви, Таня Фрэнкс, Билли Мюррэй, Вэс Блэквуд, Кристиан Солимено, Шон Кронин, Дебора Мур

Описание: Банда Ричи Арчера снова в деле, и устраивает дерзкий налет на банк в Лондоне. А всё для того, чтобы попасть в тюрьму и помочь с побегом одному своему старому приятелю.

Доп. информация: Присутствуют аудио и видео вставки рекламы

Качество: HDRip
Формат: AVI
Видео кодек: XviD
Аудио кодек: AC3
Видео: Xvid, 720x304, ~1750 kbps,23,976 fps,0.333 bpp
Аудио#1: AC3, 2 ch, 192 kbps, 48.0 KHz
Релиз от:








Общее
Полное имя : C:Торренты\Мы до сих пор воруем по-старому.2017.HDRip.avi
Формат : AVI
Формат/Информация : Audio Video Interleave
Размер файла : 1,35 Гбайт
Продолжительность : 1 ч. 39 м.
Общий поток : 1951 Кбит/сек
Программа кодирования : VirtualDubMod 1.5.10.2 (build 2540/release)
Библиотека кодирования : VirtualDubMod build 2540/release

Видео
Идентификатор : 0
Формат : MPEG-4 Visual
Профиль формата : Advanced Simple@L5
Параметр BVOP формата : 2
Параметр QPel формата : Нет
Параметр GMC формата : Без точки перехода
Параметр матрицы формата : Default (MPEG)
Идентификатор кодека : XVID
Идентификатор кодека/Подсказка : XviD
Продолжительность : 1 ч. 39 м.
Битрейт : 1750 Кбит/сек
Ширина : 720 пикселей
Высота : 304 пикселя
Соотношение сторон : 2,35:1
Частота кадров : 23,976 (24000/1001) кадра/сек
Цветовое пространство : YUV
Субдискретизация насыщенности : 4:2:0
Битовая глубина : 8 бит
Тип развёртки : Прогрессивная
Метод сжатия : С потерями
Бит/(Пиксели*Кадры) : 0.333
Размер потока : 1,21 Гбайт (90%)
Библиотека кодирования : XviD 1.2.1 (UTC 2008-12-04)

Аудио
Идентификатор : 1
Формат : AC-3
Формат/Информация : Audio Coding 3
Параметр Endianness формата : Big
Идентификатор кодека : 2000
Продолжительность : 1 ч. 39 м.
Вид битрейта : Постоянный
Битрейт : 192 Кбит/сек
Каналы : 2 канала
Расположение каналов : Front: L R
Частота : 48,0 КГц
Частота кадров : 31,250 кадров/сек (1536 spf)
Битовая глубина : 16 бит
Метод сжатия : С потерями
Размер потока : 136 Мбайт (10%)
Выравнивание : Разделение по промежуткам
Продолжительность промежутка : 42 мс. (1,00 видеокадр)
Время предзагрузки промежутка : 500 мс.
ServiceKind/String : Complete Main

pb.wtf



Скачать Мы до сих пор воруем по-старому через торрент http://pic1.kartinco.top/images/11/pw4le.jpg Скачать фильм Мы до сих пор воруем по-старому через торрент бесплантно в хорошем качестве Описание: Банда Ричи Арчера снова в деле, и устраивает дерзкий налет на банк в Лондоне. А всё для того, чтобы попасть в тюрьму и помочь с ... 8.5 10 12
Info! Золотая раздача, скачанное не засчитывается.
Торрент: Зарегистрирован [2017-05-04 14:46] · скачан: 322 раз
Статус: T временная
Размер: 1.35 GB
Как cкачать? Как скачать Мы до сих пор воруем по-старому через торрент | UTorrent

28-11-2019 20:33  

Отключить всю рекламу на сайте

    Дорогой пользователь! Огромная просьба, поблагодарите релизера, оцените раздачу и оставьте свои комментарий, если Вы скачали Мы до сих пор воруем по-старому через торрент бесплатно! Внесите свою лепту в развитие PiratBit!
    Комментировать посты могут только пользователи прошедшие не сложную регистрацию
    Показать сообщения:    

    Мы до сих пор воруем по-старому через торрент
    Скачать бесплатно Мы до сих пор воруем по-старому
    Мы до сих пор воруем по-старому скачать торрент
    Мы до сих пор воруем по-старому смотреть онлайн
    Cкачать фильм Мы до сих пор воруем по-старому бесплатно
    Мы до сих пор воруем по-старому скачать торрент в хорошем качестве
    Мы до сих пор воруем по-старому смотреть онлайн бесплатно в хорошем качестве


    Вы не можете начинать темы
    Вы не можете отвечать на сообщения
    Вы не можете редактировать свои сообщения
    Вы не можете удалять свои сообщения
    Вы не можете голосовать в опросах
    Вы не можете прикреплять файлы к сообщениям
    Вы можете скачивать файлы