новый адрес пиратбит piratbit
Мега распродажа FORZA HORIZON 4 ULTIMATE+ВСЕ DLC+ОНЛАЙН всего за 499р. 349 руб. (супер цена). Внимание количество ограничено!!!

iTunes

1+1

iTunes

мы

iTunes

1

iTunes

Чернобыль

iTunes

Ральф против интернета

Лицензия

ПШазам

Лицензия

Игра престолов

Лицензия

30
pack

ВАЖНО

!!Акция!!

Alien_RageХит недели

RePack

Resident Evil 21

ИГРА 18+

pack

RePack

Metro:Exodus

!!Акция!!

Alien_Rage

RePack

fifa19

RePack

Assassins Creed: Odyssey

RePack

NEED FOR SPEED™ PAYBACK

3 сезон

9 сезон

Бесстыжие 9 сезон

Все сериалы

все сериалы на PB.wtf

RePack

FAR CRY 5
Ребята, катастрофически не хватает 1900р. для оплаты серверов за Октябрь (всвязи с блокировками трафик упал в 3 раза), 1-2р., выручайте.
  

В лесу не сношаться! / Don't Fuck in the Woods (Shawn Burkett) [2016 г., ужасы, WEB-DLRip, Любительский двухголосый den904, DeadSno] pb.wtf

В лесу не сношаться! через торрент pb.wtf

Размер: 1.36 GB | Добавлен: 2 года 6 мес. назад | Торрент скачан:194 раза
Скачать  

05-05-2017 03:32 В лесу не сношаться! Скачать торрент  

В лесу не сношаться! / Don't Fuck in the Woods
Год выпуска: 2016
Страна: США
Жанр: ужасы
Продолжительность: 01:13:01
Перевод: Любительский двухголосый (den904, DeadSno)
Субтитры: нет

Режиссер: Shawn Burkett

rating

В ролях: Brittany Blanton, Ayse Howard, Roman Jossart, Ханна Хердт, Brian Cornell, Кайла Стоун, Brandy Mason, Скотт Гиллеспи, Deryk Wehrley, Райан Стэйси

Описание: Чтобы отдохнуть от тяжёлых рабочих будней и оторваться от унылой реальности, кучка друзей решают поехать в лесок отдохнуть... НО!!! В лесу этом присутствует странное существо, а именно высокоморальная окончательно мутировавшая или обгоревшая черепаха ниндзя судя по всему...

Доп. информация: Возрастное ограничение 18+. Рекламы нет.

Качество: WEB-DLRip
Формат: AVI
Видео кодек: XviD
Аудио кодек: AC3
Видео: 720x400, 25 fps, XviD, 2 470 kbps
Аудио: AC3, 192 kb/s ,2 ch,48.0 KHz




General
Complete name : H:\релизы.торрентфайл\Dont.Fuck.in.the.Woods.2016.L2.WEB-DLRip.avi
Format : AVI
Format/Info : Audio Video Interleave
File size : 1.36 GiB
Duration : 1h 13mn
Overall bit rate : 2 674 Kbps

Video
ID : 0
Format : MPEG-4 Visual
Format profile : Advanced Simple@L5
Format settings, BVOP : 2
Format settings, QPel : No
Format settings, GMC : No warppoints
Format settings, Matrix : Default (H.263)
Codec ID : XVID
Codec ID/Hint : XviD
Duration : 1h 13mn
Bit rate : 2 472 Kbps
Width : 720 pixels
Height : 400 pixels
Display aspect ratio : 16:9
Frame rate : 24.000 fps
Color space : YUV
Chroma subsampling : 4:2:0
Bit depth : 8 bits
Scan type : Progressive
Compression mode : Lossy
Bits/(Pixel*Frame) : 0.358
Stream size : 1.26 GiB (92%)
Writing library : XviD 66

Audio
ID : 1
Format : AC-3
Format/Info : Audio Coding 3
Mode extension : CM (complete main)
Format settings, Endianness : Big
Codec ID : 2000
Duration : 1h 13mn
Bit rate mode : Constant
Bit rate : 192 Kbps
Channel(s) : 2 channels
Channel positions : Front: L R
Sampling rate : 48.0 KHz
Bit depth : 16 bits
Compression mode : Lossy
Stream size : 100 MiB (7%)
Alignment : Split accross interleaves
Interleave, duration : 42 ms (1.00 video frame)
Interleave, preload duration : 500 ms

pb.wtf



Скачать В лесу не сношаться! через торрент http://i47.fastpic.ru/big/2017/0504/b3/1e38e770fed50806c4d8f1afe07991b3.jpg Скачать фильм В лесу не сношаться! через торрент бесплантно в хорошем качестве Описание: Чтобы отдохнуть от тяжёлых рабочих будней и оторваться от унылой реальности, кучка друзей решают поехать в лесок отдохнуть... ... 9 10 9
Info! Золотая раздача, скачанное не засчитывается.
Торрент: Зарегистрирован [2017-05-05 03:32] · скачан: 194 раз
Статус: T временная
Размер: 1.36 GB
Как cкачать? Как скачать В лесу не сношаться! через торрент | qTorrent



Последний раз редактировалось: oleg8 (2017-05-05 03:36), всего редактировалось 1 раз


>> Регистрируемся здесь <<






Отзывы и комментарии о схеме читаем и пишем здесь: ---> Отзывы и комментарии о схеме

Новые благодарочки в телеграм довольных пользователей:
скриншот   скриншот   скриншот   скриншот   скриншот

05-05-2017 03:35 В лесу не сношаться! Скачать торрент  

Во избежание воросов ко мне-я это не снимал,тема с сиськами раскрыта,..... pb.wtf



05-05-2017 03:50 В лесу не сношаться! Скачать торрент  

oleg8 писал(а):

Во избежание воросов ко мне-я это не снимал,тема с сиськами раскрыта,.....

бюджет
$10 000.....ушёл на сиськи-)pb.wtf



05-05-2017 05:57 В лесу не сношаться! Скачать торрент  

Обгоревшая черепаха ниндзя судя по всему

pb.wtf



05-05-2017 17:16 В лесу не сношаться! Скачать торрент  

Судя по описанию смотреть это опасно, даже носителям крестцового мозгаpb.wtf



05-05-2017 18:19 В лесу не сношаться! Скачать торрент  

Позолотил раздачу чисто за описание.pb.wtf



    Дорогой пользователь! Огромная просьба, поблагодарите релизера, оцените раздачу и оставьте свои комментарий, если Вы скачали В лесу не сношаться! через торрент бесплатно! Внесите свою лепту в развитие PiratBit!
    Комментировать посты могут только пользователи прошедшие не сложную регистрацию
    Показать сообщения:    

    В лесу не сношаться! через торрент
    Скачать бесплатно В лесу не сношаться!
    В лесу не сношаться! скачать торрент
    В лесу не сношаться! смотреть онлайн
    Cкачать фильм В лесу не сношаться! бесплатно
    В лесу не сношаться! скачать торрент в хорошем качестве
    В лесу не сношаться! смотреть онлайн бесплатно в хорошем качестве


    Вы не можете начинать темы
    Вы не можете отвечать на сообщения
    Вы не можете редактировать свои сообщения
    Вы не можете удалять свои сообщения
    Вы не можете голосовать в опросах
    Вы не можете прикреплять файлы к сообщениям
    Вы можете скачивать файлы